High Definition Movies on HD Teen Porn XXX Tube 1249

Teen Sex Movies Young Porn Tube Vids 1253Watch Teen Sex Videos HD 1246

Posted in HD Porn, Sex Movies, Teen | 38787 Views |


Rate this girl !!!




\r\n\r\n\r\nhttp://img101.imagetwist.com/i/05172/z3lxfow7d3fn.jpeg\r\n\r\n Link(789 Mb||21:15||1280*720||WMV)



DOWNLOAD

Keep2share.cc - Uploaded.net - Openload.co - Rapidu.net


http://ryushare.com/ebtq7yos3arh/CBSNTMcr.rar
http://ul.to/5mo8plng
http://keep2share.cc/file/52efbcdd33840


Premium here:
uploaded.net
keep2share.cc
rapidu.net.cc


Teens related to High Definition Movies on HD Teen Porn XXX Tube 1249


Hot Teen Sex HD videos 224776 ryushare uploaded keep2share

Hot Teen Sex HD videos 224776

Fresh Teen Videos 223852 ryushare uploaded keep2share

Fresh Teen Videos 223852

Hot Teen Sex HD videos 1292 ryushare uploaded keep2share

Hot Teen Sex HD videos 1292

Hardcore Sex Hub 3916 ryushare uploaded keep2share

Hardcore Sex Hub 3916

Jenna Sativa Rebecca-Volpetti-GANGBANG ryushare uploaded keep2share

Jenna Sativa Rebecca-Volpetti-GANGBANG

HD Teen Sex Tube 2364 ryushare uploaded keep2share

HD Teen Sex Tube 2364

Sweet Teen Porn – Young Porn Videos 224239 ryushare uploaded keep2share

Sweet Teen Porn – Young Porn Videos 224239

Teen Porn XXX Tube 2208 ryushare uploaded keep2share

Teen Porn XXX Tube 2208

Hardcore Sex Hub 223889 ryushare uploaded keep2share

Hardcore Sex Hub 223889

Wow girls downloads hd 225203 ryushare uploaded keep2share

Wow girls downloads hd 225203

Alexis Brill A Dose Of Pantyhose ryushare uploaded keep2share

Alexis Brill A Dose Of Pantyhose

[PublicAgent.com] Nicole Love – Perfect Boobs Flashed in Public ryushare uploaded keep2share

[PublicAgent.com] Nicole Love – Perfect Boobs Flashed in Public

Free Porn Videos Xxx Movies Pussy Porn 224680 ryushare uploaded keep2share

Free Porn Videos Xxx Movies Pussy Porn 224680

Teen porn movies 224116 ryushare uploaded keep2share

Teen porn movies 224116

xxcsex video ryushare uploaded keep2share

xxcsex video

Sex with my blonde ex girlfriend ryushare uploaded keep2share

Sex with my blonde ex girlfriend

KARLIE MONTANA’s Fetish Fantasies ryushare uploaded keep2share

KARLIE MONTANA’s Fetish Fantasies

www xxx hd ht vidoy com 226150 ryushare uploaded keep2share

www xxx hd ht vidoy com 226150

vergen xxx hd ryushare uploaded keep2share

vergen xxx hd

Sandy Sweet Massage ryushare uploaded keep2share

Sandy Sweet Massage

Beautiful small tits ryushare uploaded keep2share

Beautiful small tits

Young xxx 225712 ryushare uploaded keep2share

Young xxx 225712

www hd video xxx old 226453 ryushare uploaded keep2share

www hd video xxx old 226453

sexxxxxxx mp 3 xxxhd 226194 ryushare uploaded keep2share

sexxxxxxx mp 3 xxxhd 226194

Hardcore Sex Hub 225124 ryushare uploaded keep2share

Hardcore Sex Hub 225124

xxx videos hd 1080p free download 226275 ryushare uploaded keep2share

xxx videos hd 1080p free download 226275

Wow porn hd downloads 224041 ryushare uploaded keep2share

Wow porn hd downloads 224041

Wow Porn Movies download) 224280 ryushare uploaded keep2share

Wow Porn Movies download) 224280

beautifull girls fuck ryushare uploaded keep2share

beautifull girls fuck

College Teen Sex 225537 ryushare uploaded keep2share

College Teen Sex 225537

Sex Teens porn movies 2846 ryushare uploaded keep2share

Sex Teens porn movies 2846

Young XXX Tube Videos 4335 ryushare uploaded keep2share

Young XXX Tube Videos 4335

HD Porn Video 225189 ryushare uploaded keep2share

HD Porn Video 225189

xxx move hb bo 226572 ryushare uploaded keep2share

xxx move hb bo 226572

saxy english xxx hd download ryushare uploaded keep2share

saxy english xxx hd download

Report broken links / Post a comment

You must be logged in to post a comment.



General\r\nComplete name : D:HD TeenMania Porn Sex videos.xxxCBSNTMcrCBSNTMcr.wmv\r\nFormat : Windows Media\r\nFile size : 789 MiB\r\nDuration : 21mn 15s\r\nOverall bit rate : 5 191 Kbps\r\nMaximum Overall bit rate : 5 149 Kbps\r\nEncoded date : UTC 2013-08-14 23:32:45.000\r\n\r\nVideo\r\nID : 1\r\nFormat : VC-1\r\nFormat profile : Main\r\nCodec ID : WMV3\r\nCodec ID/Info : Windows Media Video 9\r\nCodec ID/Hint : WMV3\r\nDescription of the codec : Windows Media Video 316075832 - 2-pass VBR\r\nDuration : 21mn 15s\r\nBit rate : 5 000 Kbps\r\nWidth : 1 280 pixels\r\nHeight : 720 pixels\r\nDisplay aspect ratio : 16:9\r\nFrame rate : 25.000 fps\r\nColor space : YUV\r\nChroma subsampling : 4:2:0\r\nBit depth : 8 bits\r\nScan type : Progressive\r\nCompression mode : Lossy\r\nBits/(Pixel*Frame) : 0.217\r\nStream size : 760 MiB (96%)\r\n\r\nAudio\r\nID : 2\r\nFormat : WMA\r\nFormat version : Version 2\r\nCodec ID : 161\r\nCodec ID/Info : Windows Media Audio\r\nDescription of the codec : Windows Media Audio 9 - 316075832 kbps, 316075832 kHz, stereo CBR\r\nDuration : 21mn 15s\r\nBit rate : 128 Kbps\r\nChannel(s) : 2 channels\r\nSampling rate : 44.1 KHz\r\nBit depth : 16 bits\r\nStream size : 19.5 MiB (2%)\r\n\r\n