High Definition Movies on HD Teen Porn XXX Tube 1493

Free Porn Videos Xxx Movies Pussy Porn 1496HD Porn Videos 1486

Posted in Amateur, HD Porn, Sex Movies, Teen | 9058 Views |


Rate this girl !!!




\r\n\r\nhttp://img102.imagetwist.com/i/05231/a545zunl90uh.jpeg\r\n\r\n Link(741 Mb||20:13||1920*1080||MP4)



DOWNLOAD

Keep2share.cc - Uploaded.net - Openload.co - Rapidu.net


http://keep2share.cc/file/8188570eb31ae
http://ryushare.com/7sekfe8cgoyo/NRSHSBlc.rar
http://ul.to/tovp3k1d


Premium here:
uploaded.net
keep2share.cc
rapidu.net.cc


Teens related to High Definition Movies on HD Teen Porn XXX Tube 1493


Scarlet, Christine – Fantasy Come True ryushare uploaded keep2share

Scarlet, Christine – Fantasy Come True

8 Teen XXX – Teen Sex 5638 ryushare uploaded keep2share

8 Teen XXX – Teen Sex 5638

Www sexy videos shart mb com 226066 ryushare uploaded keep2share

Www sexy videos shart mb com 226066

21Naturals.com Alysa Gap ryushare uploaded keep2share

21Naturals.com Alysa Gap

x art angelica susie heidi orgy 226351 ryushare uploaded keep2share

x art angelica susie heidi orgy 226351

apetubegirls ryushare uploaded keep2share

apetubegirls

The best Teen sex 225598 ryushare uploaded keep2share

The best Teen sex 225598

HD Porn Video 3620 ryushare uploaded keep2share

HD Porn Video 3620

HD Porn Videos 225943 ryushare uploaded keep2share

HD Porn Videos 225943

proun hup xxx video mp4 ryushare uploaded keep2share

proun hup xxx video mp4

Teen porn xxx 224460 ryushare uploaded keep2share

Teen porn xxx 224460

hd hq xxx porn videos dawonlod 226399 ryushare uploaded keep2share

hd hq xxx porn videos dawonlod 226399

Hd young videos 2754 ryushare uploaded keep2share

Hd young videos 2754

8 Teen XXX – Teen Sex 224953 ryushare uploaded keep2share

8 Teen XXX – Teen Sex 224953

www18sexivideo com ryushare uploaded keep2share

www18sexivideo com

HD sex movies downloads 2841 ryushare uploaded keep2share

HD sex movies downloads 2841

hi sex movies download in hq 226295 ryushare uploaded keep2share

hi sex movies download in hq 226295

Nancey – Aggressive Neighbours ryushare uploaded keep2share

Nancey – Aggressive Neighbours

www xxx fusking high hd download 226692 ryushare uploaded keep2share

www xxx fusking high hd download 226692

teens handjob porn ryushare uploaded keep2share

teens handjob porn

Teen Sex Movies 1769 ryushare uploaded keep2share

Teen Sex Movies 1769

Watch Teen Sex Videos HD 225144 ryushare uploaded keep2share

Watch Teen Sex Videos HD 225144

Free Porn Videos Xxx Movies Pussy Porn 224126 ryushare uploaded keep2share

Free Porn Videos Xxx Movies Pussy Porn 224126

GirlsDoPorn E230 18 Years Old ryushare uploaded keep2share

GirlsDoPorn E230 18 Years Old

video9 in xxxsex 226754 ryushare uploaded keep2share

video9 in xxxsex 226754

Teen 18 Porn XXX Clips Naked 224373 ryushare uploaded keep2share

Teen 18 Porn XXX Clips Naked 224373

Porn party teen girls 224442 ryushare uploaded keep2share

Porn party teen girls 224442

Big tits blonde with pierced nipples ryushare uploaded keep2share

Big tits blonde with pierced nipples

pc full hd video xxx download ryushare uploaded keep2share

pc full hd video xxx download

Hd quality – Teen sex video 2401 ryushare uploaded keep2share

Hd quality – Teen sex video 2401

Young Virgin Pussy Teen Fuck Tube 4403 ryushare uploaded keep2share

Young Virgin Pussy Teen Fuck Tube 4403

Teenies Videos – Teen Porn, Teen Sex, XXX Free Videos 1306 ryushare uploaded keep2share

Teenies Videos – Teen Porn, Teen Sex, XXX Free Videos 1306

Teen Sex Movies 225608 ryushare uploaded keep2share

Teen Sex Movies 225608

Wow girls downloads hd 224254 ryushare uploaded keep2share

Wow girls downloads hd 224254

8 Teen XXX – Teen Sex 2780 ryushare uploaded keep2share

8 Teen XXX – Teen Sex 2780

Report broken links / Post a comment

You must be logged in to post a comment.



General\r\nComplete name : D:HD Teens Download Porn Sex clips movies Tube.xxxNRSHSBlcNRSHSBlc.mp4\r\nFormat : MPEG-4\r\nFormat profile : Base Media / Version 2\r\nCodec ID : mp42\r\nFile size : 741 MiB\r\nDuration : 20mn 13s\r\nOverall bit rate mode : Variable\r\nOverall bit rate : 5 121 Kbps\r\nEncoded date : UTC 2013-10-17 08:53:04\r\nTagged date : UTC 2013-10-17 08:53:04\r\n©TIM : 00:00:00:00\r\n©TSC : 25\r\n©TSZ : 1\r\n\r\nVideo\r\nID : 1\r\nFormat : AVC\r\nFormat/Info : Advanced Video Codec\r\nFormat profile : Main@L4.2\r\nFormat settings, CABAC : Yes\r\nFormat settings, ReFrames : 3 frames\r\nCodec ID : avc1\r\nCodec ID/Info : Advanced Video Coding\r\nDuration : 20mn 13s\r\nBit rate mode : Constant\r\nBit rate : 5 000 Kbps\r\nWidth : 1 920 pixels\r\nHeight : 1 080 pixels\r\nDisplay aspect ratio : 16:9\r\nFrame rate mode : Constant\r\nFrame rate : 25.000 fps\r\nStandard : NTSC\r\nColor space : YUV\r\nChroma subsampling : 4:2:0\r\nBit depth : 8 bits\r\nScan type : Progressive\r\nBits/(Pixel*Frame) : 0.096\r\nStream size : 718 MiB (97%)\r\nLanguage : English\r\nEncoded date : UTC 2013-10-17 08:53:04\r\nTagged date : UTC 2013-10-17 08:53:04\r\n\r\nAudio\r\nID : 2\r\nFormat : AAC\r\nFormat/Info : Advanced Audio Codec\r\nFormat profile : LC\r\nCodec ID : 40\r\nDuration : 20mn 13s\r\nBit rate mode : Variable\r\nBit rate : 157 Kbps\r\nMaximum bit rate : 254 Kbps\r\nChannel(s) : 2 channels\r\nChannel positions : Front: L R\r\nSampling rate : 48.0 KHz\r\nCompression mode : Lossy\r\nStream size : 22.8 MiB (3%)\r\nLanguage : English\r\nEncoded date : UTC 2013-10-17 08:53:04\r\nTagged date : UTC 2013-10-17 08:53:04\r\n\r\n\r\n