Holly Michaels – Picture Perfect

Masha - Fucking like elite whoreValentina Nappi - La Dolce Vita

Posted in HD Porn, Pornstar, Sex Movies, Teen | 18232 Views |


Rate this girl !!!




[Passion-HD.com] Holly Michaels – Picture Perfect (25.01.2013 g) [All Sex, Hardcore, Teen, Big Tits] [1080p]\r\n\r\npic\r\n\r\n 



DOWNLOAD

Keep2share.cc - Uploaded.net - Openload.co - Rapidu.net


http://ul.to/0vg3qy16/h0lly.perfec.1080.wmv
http://k2s.cc/file/077630a19be0a/h0lly.perfec.1080.wmv


Premium here:
uploaded.net
keep2share.cc
rapidu.net.cc

Teens related to Holly Michaels – Picture Perfect


Girls do porn in HD 224304 ryushare uploaded keep2share

Girls do porn in HD 224304

Free Teen Porn Videos at Teen Sex Tube XXX 5546 ryushare uploaded keep2share

Free Teen Porn Videos at Teen Sex Tube XXX 5546

Young Virgin Pussy Teen Fuck Tube 4223 ryushare uploaded keep2share

Young Virgin Pussy Teen Fuck Tube 4223

Teens 1080p hd porn 3561 ryushare uploaded keep2share

Teens 1080p hd porn 3561

Young Sex Movies 4496 ryushare uploaded keep2share

Young Sex Movies 4496

Lіоnа & Сhаrlіzе Веllа – Forest Fun ryushare uploaded keep2share

Lіоnа & Сhаrlіzе Веllа – Forest Fun

Teen Sex Movies 223947 ryushare uploaded keep2share

Teen Sex Movies 223947

Taissia – Take it slow ryushare uploaded keep2share

Taissia – Take it slow

hdsex movea com 226516 ryushare uploaded keep2share

hdsex movea com 226516

Hot download sex girls movies 5477 ryushare uploaded keep2share

Hot download sex girls movies 5477

Teen Sex Videos Tube Movies 225092 ryushare uploaded keep2share

Teen Sex Videos Tube Movies 225092

21Naturals.com Ashley ryushare uploaded keep2share

21Naturals.com Ashley

Girls sex art hd teens videos 223832 ryushare uploaded keep2share

Girls sex art hd teens videos 223832

HD Teen Sex Tube 224831 ryushare uploaded keep2share

HD Teen Sex Tube 224831

Young legal porn clips 4698 ryushare uploaded keep2share

Young legal porn clips 4698

Teen 18 Porn XXX Clips Naked 1367 ryushare uploaded keep2share

Teen 18 Porn XXX Clips Naked 1367

Young teens tube hot girls free porn video 5527 ryushare uploaded keep2share

Young teens tube hot girls free porn video 5527

Valerie White – College Girls Are Easy ryushare uploaded keep2share

Valerie White – College Girls Are Easy

Teenage Fuck Clips 3779 ryushare uploaded keep2share

Teenage Fuck Clips 3779

Teen Sex Videos Tube Movies 3941 ryushare uploaded keep2share

Teen Sex Videos Tube Movies 3941

Sweet Teen Porn – Young Porn Videos 224912 ryushare uploaded keep2share

Sweet Teen Porn – Young Porn Videos 224912

Teenage Fuck Clips 3405 ryushare uploaded keep2share

Teenage Fuck Clips 3405

Watch Teen Sex Videos HD 1246 ryushare uploaded keep2share

Watch Teen Sex Videos HD 1246

xxxxxxxxxxxxx baf hf 226462 ryushare uploaded keep2share

xxxxxxxxxxxxx baf hf 226462

girls high quality sex videos download 226282 ryushare uploaded keep2share

girls high quality sex videos download 226282

Ariana Marie, Holly Michaels (Rub You The Right Way / 04.11.13) ryushare uploaded keep2share

Ariana Marie, Holly Michaels (Rub You The Right Way / 04.11.13)

teenporno mp4 ryushare uploaded keep2share

teenporno mp4

Jessie Volt (K POV) A ryushare uploaded keep2share

Jessie Volt (K POV) A

Klixen – K Fantasies of a Piano Player ryushare uploaded keep2share

Klixen – K Fantasies of a Piano Player

8 Teen XXX – Teen Sex 224510 ryushare uploaded keep2share

8 Teen XXX – Teen Sex 224510

Uploaded net porn XXX 224345 ryushare uploaded keep2share

Uploaded net porn XXX 224345

xxx fuking feast times video hd dawunlod 226104 ryushare uploaded keep2share

xxx fuking feast times video hd dawunlod 226104

tube sex 17 girl ryushare uploaded keep2share

tube sex 17 girl

Fresh Teen Videos 4156 ryushare uploaded keep2share

Fresh Teen Videos 4156

free download sovjetmassage com 226506 ryushare uploaded keep2share

free download sovjetmassage com 226506

Report broken links / Post a comment

You must be logged in to post a comment.



General\r\nComplete name : D:HD Porn Teens Sex download movies tube online tubeholly_picture_perfect_1080.wmv\r\nFormat : Windows Media\r\nFile size : 1.42 GiB\r\nDuration : 22mn 27s\r\nOverall bit rate mode : Constant\r\nOverall bit rate : 9 071 Kbps\r\nMaximum Overall bit rate : 9 199 Kbps\r\nEncoded date : UTC 2013-01-12 23:44:15.375\r\n\r\nVideo\r\nID : 2\r\nFormat : VC-1\r\nFormat profile : MP@HL\r\nCodec ID : WMV3\r\nCodec ID/Info : Windows Media Video 9\r\nCodec ID/Hint : WMV3\r\nDescription of the codec : Windows Media Video 9 - Professional\r\nDuration : 22mn 27s\r\nBit rate mode : Constant\r\nBit rate : 9 000 Kbps\r\nWidth : 1 920 pixels\r\nHeight : 1 080 pixels\r\nDisplay aspect ratio : 16:9\r\nFrame rate : 23.976 fps\r\nNominal frame rate : 29.970 fps\r\nColor space : YUV\r\nChroma subsampling : 4:2:0\r\nBit depth : 8 bits\r\nScan type : Progressive\r\nCompression mode : Lossy\r\nBits/(Pixel*Frame) : 0.181\r\nStream size : 1.41 GiB (99%)\r\n\r\nAudio\r\nID : 1\r\nFormat : WMA\r\nFormat version : Version 2\r\nCodec ID : 161\r\nCodec ID/Info : Windows Media Audio\r\nDescription of the codec : Windows Media Audio 9.2 - 128 kbps, 44 kHz, stereo 2-pass CBR\r\nDuration : 22mn 27s\r\nBit rate mode : Constant\r\nBit rate : 128 Kbps\r\nChannel(s) : 2 channels\r\nSampling rate : 44.1 KHz\r\nBit depth : 16 bits\r\nStream size : 20.6 MiB (1%)\r\n\r\n