Hot hd teen sex videos 3748

Teen 18 Porn XXX Clips Naked 3747Hot Teen Sex 3744

Posted in Amateur, HD Porn, Lesbian, Sex Movies, Teen | 15687 Views |


Rate this girl !!!




cover\r\n\r\nscreens



DOWNLOAD

Keep2share.cc - Uploaded.net - Openload.co - Rapidu.net


http://ryushare.com/ae2ryyogrnro/Be.st_Fr.iends_For.e.ver_H.D.10.80.mp4
http://fileom.com/mkdkytehysl9/Be.st_Fr.iends_For.e.ver_H.D.10.80.mp4.html
http://ul.to/kasirum7/Be.st_Fr.iends_For.e.ver_H.D.10.80.mp4
http://k2s.cc/file/2cf68b65e6764/Be.st_Fr.iends_For.e.ver_H.D.10.80.mp4


Premium here:
uploaded.net
keep2share.cc
rapidu.net.cc


Teens related to Hot hd teen sex videos 3748


porn videos direct download 226299 ryushare uploaded keep2share

porn videos direct download 226299

Teens 1080p hd porn 2862 ryushare uploaded keep2share

Teens 1080p hd porn 2862

ClubSeventeen.com SiteRip – Part 2 ryushare uploaded keep2share

ClubSeventeen.com SiteRip – Part 2

foll hd xxx 2016bobes mailk 226591 ryushare uploaded keep2share

foll hd xxx 2016bobes mailk 226591

Maria Pie And Nomi – Melting Like Butter ryushare uploaded keep2share

Maria Pie And Nomi – Melting Like Butter

Young xxx 225287 ryushare uploaded keep2share

Young xxx 225287

Young XXX Tube Videos 4107 ryushare uploaded keep2share

Young XXX Tube Videos 4107

Teen Porn XXX Tube 1957 ryushare uploaded keep2share

Teen Porn XXX Tube 1957

Teen Sex Movies 3927 ryushare uploaded keep2share

Teen Sex Movies 3927

Free High Quality Sex Movies 5357 ryushare uploaded keep2share

Free High Quality Sex Movies 5357

Fresh Teen Videos 2655 ryushare uploaded keep2share

Fresh Teen Videos 2655

High Definition Movies on HD 3938 ryushare uploaded keep2share

High Definition Movies on HD 3938

HD Teen Sex Tube 1620 ryushare uploaded keep2share

HD Teen Sex Tube 1620

[RylskyArt.com] Luciana – Sommerz ryushare uploaded keep2share

[RylskyArt.com] Luciana – Sommerz

Hd young videos 224121 ryushare uploaded keep2share

Hd young videos 224121

Porn teen hd downloads 224098 ryushare uploaded keep2share

Porn teen hd downloads 224098

HD sex movies downloads 2913 ryushare uploaded keep2share

HD sex movies downloads 2913

yess xxx mkv 226512 ryushare uploaded keep2share

yess xxx mkv 226512

Bella Baby – Opposites Attract ryushare uploaded keep2share

Bella Baby – Opposites Attract

Hot Tina, Kayla Green – Lessons in Lust ryushare uploaded keep2share

Hot Tina, Kayla Green – Lessons in Lust

image sexxxx porn 226599 ryushare uploaded keep2share

image sexxxx porn 226599

romentic hd pornmovie download 226723 ryushare uploaded keep2share

romentic hd pornmovie download 226723

HD Teens Sex Tube Videos XxX 5719 ryushare uploaded keep2share

HD Teens Sex Tube Videos XxX 5719

College Teen Sex 6536 ryushare uploaded keep2share

College Teen Sex 6536

Lucy Li – Perky Teen Lucy Li Gets Lathered download in hd 226168 ryushare uploaded keep2share

Lucy Li – Perky Teen Lucy Li Gets Lathered download in hd 226168

Wow Porn Teen Movies HD ryushare uploaded keep2share

Wow Porn Teen Movies HD

Jassie Gold – Take Your Tisme / all sex ryushare uploaded keep2share

Jassie Gold – Take Your Tisme / all sex

no turning back now and part one in free x art 226020 ryushare uploaded keep2share

no turning back now and part one in free x art 226020

www hd video xxx old 226453 ryushare uploaded keep2share

www hd video xxx old 226453

pc free porn hd ryushare uploaded keep2share

pc free porn hd

world hd sex clips 226188 ryushare uploaded keep2share

world hd sex clips 226188

Amateur Teen Sex 225702 ryushare uploaded keep2share

Amateur Teen Sex 225702

Young teens tube hot girls free porn video 1296 ryushare uploaded keep2share

Young teens tube hot girls free porn video 1296

Free High Quality Sex Movies 223962 ryushare uploaded keep2share

Free High Quality Sex Movies 223962

Wow girls hd porn teens 224738 ryushare uploaded keep2share

Wow girls hd porn teens 224738

Report broken links / Post a comment

You must be logged in to post a comment.



General\r\nComplete name : D:hd pornstars teens ryushare.com uploaded.net keep2share.cc fileom.com streamcloud.eu allmyvideos.net ul.to download porn movies clips Best_Friends_Forever_HD1080.mp4\r\nFormat : MPEG-4\r\nFormat profile : Base Media\r\nCodec ID : isom\r\nFile size : 1.34 GiB\r\nDuration : 24mn 59s\r\nOverall bit rate mode : Variable\r\nOverall bit rate : 7 676 Kbps\r\nEncoded date : UTC 1970-01-01 00:00:00\r\nTagged date : UTC 1970-01-01 00:00:00\r\nWriting application : Lavf52.64.2\r\n\r\nVideo\r\nID : 1\r\nFormat : AVC\r\nFormat/Info : Advanced Video Codec\r\nFormat profile : High@L4.0\r\nFormat settings, CABAC : Yes\r\nFormat settings, ReFrames : 2 frames\r\nCodec ID : avc1\r\nCodec ID/Info : Advanced Video Coding\r\nDuration : 24mn 59s\r\nBit rate : 7 564 Kbps\r\nWidth : 1 920 pixels\r\nHeight : 1 080 pixels\r\nDisplay aspect ratio : 16:9\r\nFrame rate mode : Constant\r\nFrame rate : 29.970 fps\r\nColor space : YUV\r\nChroma subsampling : 4:2:0\r\nBit depth : 8 bits\r\nScan type : Progressive\r\nBits/(Pixel*Frame) : 0.122\r\nStream size : 1.32 GiB (99%)\r\nWriting library : x264 core 102 r1666 d058f37\r\nEncoding settings : cabac=1 / ref=2 / deblock=1:0:0 / analyse=0x3:0x113 / me=hex / subme=6 / psy=1 / psy_rd=1.00:0.00 / mixed_ref=0 / me_range=16 / chroma_me=1 / trellis=0 / 8x8dct=1 / cqm=0 / deadzone=21,11 / fast_pskip=1 / chroma_qp_offset=-2 / threads=24 / sliced_threads=0 / nr=0 / decimate=1 / interlaced=0 / constrained_intra=0 / bframes=3 / b_pyramid=0 / b_adapt=1 / b_bias=0 / direct=3 / weightb=1 / open_gop=0 / weightp=2 / keyint=250 / keyint_min=25 / scenecut=40 / intra_refresh=0 / rc_lookahead=40 / rc=crf / mbtree=1 / crf=20.0 / qcomp=0.60 / qpmin=10 / qpmax=51 / qpstep=4 / ip_ratio=1.41 / aq=1:1.00\r\nEncoded date : UTC 1970-01-01 00:00:00\r\nTagged date : UTC 1970-01-01 00:00:00\r\n\r\nAudio\r\nID : 2\r\nFormat : AAC\r\nFormat/Info : Advanced Audio Codec\r\nFormat profile : LC\r\nCodec ID : 40\r\nDuration : 24mn 59s\r\nBit rate mode : Variable\r\nBit rate : 107 Kbps\r\nChannel(s) : 2 channels\r\nChannel positions : Front: L R\r\nSampling rate : 44.1 KHz\r\nCompression mode : Lossy\r\nStream size : 19.1 MiB (1%)\r\nEncoded date : UTC 1970-01-01 00:00:00\r\nTagged date : UTC 1970-01-01 00:00:00\r\n\r\nhd pornstars teens ryushare.com uploaded.net keep2share.cc fileom.com streamcloud.eu allmyvideos.net ul.to download porn movies clips