Hot sex girls movies download 3478

8 Teen XXX - Teen Sex 3479Free Teen Porn Videos at Teen Sex Tube XXX 3477

Posted in HD Porn, Pornstar, Sex Movies, Teen | 11431 Views |


Rate this girl !!!


(38 raters, 125 scores, average: 3.29 out of 5, 65.79%)

Sexart  – Carla Cox – Still enough time 720p

Sexart  – Carla Cox – Still enough time 720p

Sexart  – Carla Cox – Still enough time 720p

Sexart  – Carla Cox – Still enough time 720p

Sexart  – Carla Cox – Still enough time 720p

Sexart  – Carla Cox – Still enough time 720p

Sexart  – Carla Cox – Still enough time 720p



DOWNLOAD

Keep2share.cc - Uploaded.net - Openload.co - Rapidu.net



Premium here:
uploaded.net
keep2share.cc
rapidu.net.cc

Incoming search terms:

  • hdxxxhot com
  • hdhotsexmovi
  • hotsexhdvedeio
  • hdxxxhotgirl
  • HDhotsexmovies com
  • hdhotsexmovies
  • hdhotsexmovie
  • Www hdhotsexmovie com
  • www hdhotsexmovi com
  • www hdhotsexmovies com
  • HD Hotsexmovie com
  • hdhotsexmoyie
  • hdhotsexmovis
  • hdhotsexmove
  • www hdxxx hot com


Tags: , , , , , , ,

Teens related to Hot sex girls movies download 3478


daunloding sex xxx hd 226058 ryushare uploaded keep2share

daunloding sex xxx hd 226058

Teen Sex Porn Videos Free Nude Teens 2202 ryushare uploaded keep2share

Teen Sex Porn Videos Free Nude Teens 2202

Hot Teen Sex 3705 ryushare uploaded keep2share

Hot Teen Sex 3705

wow grils ryushare uploaded keep2share

wow grils

21Naturals.com Doris Ivy – Unchained ryushare uploaded keep2share

21Naturals.com Doris Ivy – Unchained

Brunette bonk ryushare uploaded keep2share

Brunette bonk

Hd young videos 224660 ryushare uploaded keep2share

Hd young videos 224660

Teens sex mania 225690 ryushare uploaded keep2share

Teens sex mania 225690

Hardcore sex videos in the high definition quality 224887 ryushare uploaded keep2share

Hardcore sex videos in the high definition quality 224887

Teen Sex Movies 225608 ryushare uploaded keep2share

Teen Sex Movies 225608

Porno lesbian young teens movies 4143 ryushare uploaded keep2share

Porno lesbian young teens movies 4143

Porn HD Sex HD Teen Sex 4153 ryushare uploaded keep2share

Porn HD Sex HD Teen Sex 4153

Taissia Shanti – Delicate ryushare uploaded keep2share

Taissia Shanti – Delicate

www hd sex world moves 226438 ryushare uploaded keep2share

www hd sex world moves 226438

Fucking outdoors ryushare uploaded keep2share

Fucking outdoors

Teens in Porno young porn videos and free teen sex 225947 ryushare uploaded keep2share

Teens in Porno young porn videos and free teen sex 225947

21Naturals.com Ava Dalush – Puppeteer ryushare uploaded keep2share

21Naturals.com Ava Dalush – Puppeteer

Free High Quality Sex Movies 1175 ryushare uploaded keep2share

Free High Quality Sex Movies 1175

www8ten sex xxx com ryushare uploaded keep2share

www8ten sex xxx com

www xxxnx hd porn video ryushare uploaded keep2share

www xxxnx hd porn video

very hot pron 226721 ryushare uploaded keep2share

very hot pron 226721

Wow porn tube movies 224745 ryushare uploaded keep2share

Wow porn tube movies 224745

xxx videos hd 1080p free download 226275 ryushare uploaded keep2share

xxx videos hd 1080p free download 226275

www free x video hq hd com 226236 ryushare uploaded keep2share

www free x video hq hd com 226236

Nice To Meet You ryushare uploaded keep2share

Nice To Meet You

First time Sexual Films 18 sex xxx 225737 ryushare uploaded keep2share

First time Sexual Films 18 sex xxx 225737

Tube Young Sex 3436 ryushare uploaded keep2share

Tube Young Sex 3436

Eva Rides on Top on a Nice Thick Cock ryushare uploaded keep2share

Eva Rides on Top on a Nice Thick Cock

Teen Sex Movies 223765 ryushare uploaded keep2share

Teen Sex Movies 223765

Porn party teen girls 223820 ryushare uploaded keep2share

Porn party teen girls 223820

College Teen Sex 225721 ryushare uploaded keep2share

College Teen Sex 225721

Silvie Luca – Give And Take ryushare uploaded keep2share

Silvie Luca – Give And Take

www xxx hot 99 com 226355 ryushare uploaded keep2share

www xxx hot 99 com 226355

HD Porn Video 1352 ryushare uploaded keep2share

HD Porn Video 1352

Teen Porn XXX Tube 224730 ryushare uploaded keep2share

Teen Porn XXX Tube 224730

Report broken links / Post a comment

You must be logged in to post a comment.



General
Complete name : H:HD TEENS PORNDOWNLOADRYUSHAREUPLOADEDKEEP2SHAREsexart_Carla_Cox_set_720.mp4
Format : MPEG-4
Format profile : Base Media
Codec ID : isom
File size : 289 MiB
Duration : 18mn 56s
Overall bit rate mode : Variable
Overall bit rate : 2 134 Kbps
Writing application : Lavf52.86.0
Comment : Download from HDteenmania.com

Video
ID : 1
Format : AVC
Format/Info : Advanced Video Codec
Format profile : High@L3.1
Format settings, CABAC : Yes
Format settings, ReFrames : 5 frames
Codec ID : avc1
Codec ID/Info : Advanced Video Coding
Duration : 18mn 56s
Bit rate mode : Variable
Bit rate : 2 000 Kbps
Width : 1 280 pixels
Height : 720 pixels
Display aspect ratio : 16:9
Frame rate mode : Constant
Frame rate : 25.000 fps
Color space : YUV
Chroma subsampling : 4:2:0
Bit depth : 8 bits
Scan type : Progressive
Bits/(Pixel*Frame) : 0.087
Stream size : 271 MiB (94%)
Writing library : x264 core 108
Encoding settings : cabac=1 / ref=5 / deblock=1:0:0 / analyse=0x3:0x113 / me=umh / subme=8 / psy=1 / psy_rd=1.00:0.00 / mixed_ref=1 / me_range=16 / chroma_me=1 / trellis=1 / 8x8dct=1 / cqm=0 / deadzone=21,11 / fast_pskip=1 / chroma_qp_offset=-2 / threads=36 / sliced_threads=0 / nr=0 / decimate=1 / interlaced=0 / constrained_intra=0 / bframes=3 / b_pyramid=2 / b_adapt=2 / b_bias=0 / direct=3 / weightb=1 / open_gop=0 / weightp=2 / keyint=250 / keyint_min=25 / scenecut=40 / intra_refresh=0 / rc_lookahead=50 / rc=2pass / mbtree=1 / bitrate=2000 / ratetol=1.0 / qcomp=0.60 / qpmin=10 / qpmax=51 / qpstep=4 / cplxblur=20.0 / qblur=0.5 / ip_ratio=1.41 / aq=1:1.00
Language : English

Audio
ID : 2
Format : AAC
Format/Info : Advanced Audio Codec
Format profile : LC
Codec ID : 40
Duration : 18mn 56s
Bit rate mode : Variable
Bit rate : 128 Kbps
Channel(s) : 2 channels
Channel positions : Front: L R
Sampling rate : 48.0 KHz
Compression mode : Lossy
Delay relative to video : 80ms
Stream size : 17.3 MiB (6%)
Language : English