Hot sex girls movies download 3874

Hd young videos 3878Free Young Porn Videos XXX Teen Porn 3871

Posted in Amateur, HD Porn, Sex Movies, Teen | 8767 Views |


Rate this girl !!!


(20 raters, 70 scores, average: 3.50 out of 5, 70%)

cover

1920x1080p / MP4 / 1.1 GB

SCREENSHOTS:

screens

 



DOWNLOAD

Keep2share.cc - Uploaded.net - Openload.co - Rapidu.net



Premium here:
uploaded.net
keep2share.cc
rapidu.net.cc


Teens related to Hot sex girls movies download 3874


Hd young videos 3698 ryushare uploaded keep2share

Hd young videos 3698

Teen porn xxx 224950 ryushare uploaded keep2share

Teen porn xxx 224950

Teen Sex Porn Videos Free Nude Teens 3671 ryushare uploaded keep2share

Teen Sex Porn Videos Free Nude Teens 3671

Teen porn xxx 225534 ryushare uploaded keep2share

Teen porn xxx 225534

Girls do porn in HD 225281 ryushare uploaded keep2share

Girls do porn in HD 225281

xxxxxxxxxxxxx baf hf 226462 ryushare uploaded keep2share

xxxxxxxxxxxxx baf hf 226462

yes-xxx-teen-sex-movies ryushare uploaded keep2share

yes-xxx-teen-sex-movies

Young Virgin Pussy Teen Fuck Tube 2962 ryushare uploaded keep2share

Young Virgin Pussy Teen Fuck Tube 2962

Hot Teen Sex HD videos 224178 ryushare uploaded keep2share

Hot Teen Sex HD videos 224178

www HD xxxvideos downlaod com ryushare uploaded keep2share

www HD xxxvideos downlaod com

hd porn videos in low size download free 226092 ryushare uploaded keep2share

hd porn videos in low size download free 226092

teens sex vidio indir 226595 ryushare uploaded keep2share

teens sex vidio indir 226595

Free Porn Videos Xxx Movies Pussy Porn 225004 ryushare uploaded keep2share

Free Porn Videos Xxx Movies Pussy Porn 225004

www xxx Bif videos HD ryushare uploaded keep2share

www xxx Bif videos HD

HQ Sex Movies Download 224196 ryushare uploaded keep2share

HQ Sex Movies Download 224196

The best Teen sex 2589 ryushare uploaded keep2share

The best Teen sex 2589

HD sex movies downloads 3866 ryushare uploaded keep2share

HD sex movies downloads 3866

HD Porn Teen Sex Videos 2182 ryushare uploaded keep2share

HD Porn Teen Sex Videos 2182

xxx teen clips 226044 ryushare uploaded keep2share

xxx teen clips 226044

HD Porn Video 3620 ryushare uploaded keep2share

HD Porn Video 3620

HD Teens Sex Tube Videos XxX 225160 ryushare uploaded keep2share

HD Teens Sex Tube Videos XxX 225160

Just Clara ryushare uploaded keep2share

Just Clara

Alexis Brill – WUNF 101 ryushare uploaded keep2share

Alexis Brill – WUNF 101

Beautiful small tits ryushare uploaded keep2share

Beautiful small tits

Porno Big Tits young teens movies 3737 ryushare uploaded keep2share

Porno Big Tits young teens movies 3737

www xxxx 18teen grils ryushare uploaded keep2share

www xxxx 18teen grils

Movies Young legal porn 225153 ryushare uploaded keep2share

Movies Young legal porn 225153

Young XXX Tube Videos 3807 ryushare uploaded keep2share

Young XXX Tube Videos 3807

18YearsOld.com Megan Rain – Playing Hooky ryushare uploaded keep2share

18YearsOld.com Megan Rain – Playing Hooky

Movies Young legal porn 224316 ryushare uploaded keep2share

Movies Young legal porn 224316

Young teens tube hot girls free porn video 1947 ryushare uploaded keep2share

Young teens tube hot girls free porn video 1947

hd sex teen vidio 226777 ryushare uploaded keep2share

hd sex teen vidio 226777

HD Teen Sex Tube 5272 ryushare uploaded keep2share

HD Teen Sex Tube 5272

Jane Classy & Alexis Crystal ryushare uploaded keep2share

Jane Classy & Alexis Crystal

www xxx videos dawnload com ryushare uploaded keep2share

www xxx videos dawnload com

Report broken links / Post a comment

You must be logged in to post a comment.



General
Complete name : D:RazorJDDescargasSaturday_Morning_HD1080.mp4
Format : MPEG-4
Format profile : Base Media
Codec ID : isom
File size : 1.10 GiB
Duration : 21mn 42s
Overall bit rate mode : Variable
Overall bit rate : 7 272 Kbps
Encoded date : UTC 1970-01-01 00:00:00
Tagged date : UTC 1970-01-01 00:00:00
Writing application : Lavf52.64.2

Video
ID : 1
Format : AVC
Format/Info : Advanced Video Codec
Format profile : High@L4.0
Format settings, CABAC : Yes
Format settings, ReFrames : 2 frames
Codec ID : avc1
Codec ID/Info : Advanced Video Coding
Duration : 21mn 42s
Bit rate : 7 115 Kbps
Width : 1 920 pixels
Height : 1 080 pixels
Display aspect ratio : 16:9
Frame rate mode : Constant
Frame rate : 29.970 fps
Color space : YUV
Chroma subsampling : 4:2:0
Bit depth : 8 bits
Scan type : Progressive
Bits/(Pixel*Frame) : 0.114
Stream size : 1.08 GiB (98%)
Writing library : x264 core 102 r1666 d058f37
Encoding settings : cabac=1 / ref=2 / deblock=1:0:0 / analyse=0x3:0x113 / me=hex / subme=6 / psy=1 / psy_rd=1.00:0.00 / mixed_ref=0 / me_range=16 / chroma_me=1 / trellis=0 / 8x8dct=1 / cqm=0 / deadzone=21,11 / fast_pskip=1 / chroma_qp_offset=-2 / threads=24 / sliced_threads=0 / nr=0 / decimate=1 / interlaced=0 / constrained_intra=0 / bframes=3 / b_pyramid=0 / b_adapt=1 / b_bias=0 / direct=3 / weightb=1 / open_gop=0 / weightp=2 / keyint=250 / keyint_min=25 / scenecut=40 / intra_refresh=0 / rc_lookahead=40 / rc=crf / mbtree=1 / crf=20.0 / qcomp=0.60 / qpmin=10 / qpmax=51 / qpstep=4 / ip_ratio=1.41 / aq=1:1.00
Encoded date : UTC 1970-01-01 00:00:00
Tagged date : UTC 1970-01-01 00:00:00

Audio
ID : 2
Format : AAC
Format/Info : Advanced Audio Codec
Format profile : LC
Codec ID : 40
Duration : 21mn 42s
Bit rate mode : Variable
Bit rate : 151 Kbps
Channel(s) : 2 channels
Channel positions : Front: L R
Sampling rate : 44.1 KHz
Compression mode : Lossy
Stream size : 23.5 MiB (2%)
Encoded date : UTC 1970-01-01 00:00:00
Tagged date : UTC 1970-01-01 00:00:00

RAPIDGATOR / UPLOADED / UPLOADABLE / KEEP2SHARE
UPLOADED / RYUSHARE / FILEOM / KEEP2SHARE

hd tube amateur porn young girls sex direct download online movies clips
ryushare.com uploaded.net keep2share.cc fileom.com streamcloud.eu allmyvideos.net ul.to download porn movies clip
hd pornstars teens ryushare.com uploaded.net keep2share.cc fileom.com streamcloud.eu allmyvideos.net ul.to download porn movies clips