Hot Teen Sex 1274

Teen Porn XXX Tube 1280HD Porn Videos 1271

Posted in Amateur, HD Porn, Sex Movies, Teen | 4508 Views |


Rate this girl !!!


(10 raters, 36 scores, average: 3.60 out of 5, 72%)


http://img101.imagetwist.com/i/05180/8ie0k281718e.jpeg

Link(204 Mb||20:19||640*480||WMV)



DOWNLOAD

Keep2share.cc - Uploaded.net - Openload.co - Rapidu.net



Premium here:
uploaded.net
keep2share.cc
rapidu.net.cc


Teens related to Hot Teen Sex 1274


www sexvideo hd1280 226502 ryushare uploaded keep2share

www sexvideo hd1280 226502

Naughty Temptress – Capri Anderson ryushare uploaded keep2share

Naughty Temptress – Capri Anderson

Angelica, The Red Fox X-Art.com ryushare uploaded keep2share

Angelica, The Red Fox X-Art.com

High Definition Movies on HD Teen Porn XXX Tube 223972 ryushare uploaded keep2share

High Definition Movies on HD Teen Porn XXX Tube 223972

Wow porn tube movies 4493 ryushare uploaded keep2share

Wow porn tube movies 4493

Free Teen Porn Videos at Teen Sex Tube XXX 225428 ryushare uploaded keep2share

Free Teen Porn Videos at Teen Sex Tube XXX 225428

very hot pron 226721 ryushare uploaded keep2share

very hot pron 226721

Porn teen hd downloads 224289 ryushare uploaded keep2share

Porn teen hd downloads 224289

Teen Sex Movies 2658 ryushare uploaded keep2share

Teen Sex Movies 2658

image sexxxx porn 226599 ryushare uploaded keep2share

image sexxxx porn 226599

Teen porn movies 225435 ryushare uploaded keep2share

Teen porn movies 225435

hd small mbporn video sites 226424 ryushare uploaded keep2share

hd small mbporn video sites 226424

Molly – Deep and passionate anal ryushare uploaded keep2share

Molly – Deep and passionate anal

Teenies Videos – Teen Porn, Teen Sex, XXX Free Videos 4372 ryushare uploaded keep2share

Teenies Videos – Teen Porn, Teen Sex, XXX Free Videos 4372

Teen porn movies 224809 ryushare uploaded keep2share

Teen porn movies 224809

Fresh Teen Videos 1868 ryushare uploaded keep2share

Fresh Teen Videos 1868

Hot Teen Sex 224365 ryushare uploaded keep2share

Hot Teen Sex 224365

Fucking skinny pornstar girl ryushare uploaded keep2share

Fucking skinny pornstar girl

HD Porn Videos 3003 ryushare uploaded keep2share

HD Porn Videos 3003

Wow porn hd downloads 224035 ryushare uploaded keep2share

Wow porn hd downloads 224035

Free High Quality Sex Movies 4635 ryushare uploaded keep2share

Free High Quality Sex Movies 4635

X-Art – Addison – No Turning Back ryushare uploaded keep2share

X-Art – Addison – No Turning Back

Young Virgin Pussy Teen Fuck Tube 224017 ryushare uploaded keep2share

Young Virgin Pussy Teen Fuck Tube 224017

Alexia aka Kitty Jane (Secret Part I) ryushare uploaded keep2share

Alexia aka Kitty Jane (Secret Part I)

Teens in Porno young porn videos and free teen sex 224477 ryushare uploaded keep2share

Teens in Porno young porn videos and free teen sex 224477

Porn teen hd downloads 224873 ryushare uploaded keep2share

Porn teen hd downloads 224873

Good Teen Tube Sexy Young Naked Girls Movies 224639 ryushare uploaded keep2share

Good Teen Tube Sexy Young Naked Girls Movies 224639

Klara, Paloma – Let’s Come Together ryushare uploaded keep2share

Klara, Paloma – Let’s Come Together

Hot xxx move download 225987 ryushare uploaded keep2share

Hot xxx move download 225987

Teen porn xxx 225068 ryushare uploaded keep2share

Teen porn xxx 225068

Sara Luvv (Every Inch) ryushare uploaded keep2share

Sara Luvv (Every Inch)

Teen sex xxx hd 4852 ryushare uploaded keep2share

Teen sex xxx hd 4852

sex compress videos 226457 ryushare uploaded keep2share

sex compress videos 226457

Teen Porn XXX Tube 224141 ryushare uploaded keep2share

Teen Porn XXX Tube 224141

Nice To Meet You ryushare uploaded keep2share

Nice To Meet You

Report broken links / Post a comment

You must be logged in to post a comment.



General
Complete name : D:HD TeenMania Porn Sex videos.xxxFRCDRTnyFRCDRTny.wmv
Format : Windows Media
File size : 204 MiB
Duration : 20mn 19s
Overall bit rate mode : Constant
Overall bit rate : 1 403 Kbps
Maximum Overall bit rate : 1 410 Kbps
Encoded date : UTC 2008-08-20 22:15:08.815

Video
ID : 2
Format : VC-1
Format profile : Main
Codec ID : WMV3
Codec ID/Info : Windows Media Video 9
Codec ID/Hint : WMV3
Description of the codec : Windows Media Video 9 - Professional
Duration : 20mn 19s
Bit rate mode : Constant
Bit rate : 1 300 Kbps
Width : 640 pixels
Height : 480 pixels
Display aspect ratio : 4:3
Frame rate : 25.000 fps
Color space : YUV
Chroma subsampling : 4:2:0
Bit depth : 8 bits
Scan type : Progressive
Compression mode : Lossy
Bits/(Pixel*Frame) : 0.169
Stream size : 189 MiB (93%)
Language : Russian

Audio
ID : 1
Format : WMA
Format version : Version 2
Codec ID : 161
Codec ID/Info : Windows Media Audio
Description of the codec : Windows Media Audio 9.1 - 96 kbps, 44 kHz, stereo 1-pass CBR
Duration : 20mn 19s
Bit rate mode : Constant
Bit rate : 96.0 Kbps
Channel(s) : 2 channels
Sampling rate : 44.1 KHz
Bit depth : 16 bits
Stream size : 14.0 MiB (7%)
Language : Russian