Hot Teen Sex 1726

Teen Sex Movies Young Porn Tube Vids 1731Hd quality - Teen sex video 1722

Posted in Amateur, HD Porn, Sex Movies, Teen | 14311 Views |


Rate this girl !!!




\r\n\r\n\r\nhttp://img56.imagetwist.com/i/05265/s1nsi95qh8im.jpg\r\n\r\n Link(910 Mb||29:59||1280*720||WMV)



DOWNLOAD

Keep2share.cc - Uploaded.net - Openload.co - Rapidu.net


http://keep2share.cc/file/2c723fead9130
http://ryushare.com/7cv13w5sx4wg/MNDBGsr.rar
http://ul.to/oiawf7ju


Premium here:
uploaded.net
keep2share.cc
rapidu.net.cc


Teens related to Hot Teen Sex 1726


TrickyMasseur.com January ryushare uploaded keep2share

TrickyMasseur.com January

short porn movies hd download 226560 ryushare uploaded keep2share

short porn movies hd download 226560

Jungle Fever – Beata, Anjelica ryushare uploaded keep2share

Jungle Fever – Beata, Anjelica

Pornstar teen fucked in all holes ryushare uploaded keep2share

Pornstar teen fucked in all holes

HD Sex World Videos High Definition Free Porn 1623 ryushare uploaded keep2share

HD Sex World Videos High Definition Free Porn 1623

waltz autumn sexart ryushare uploaded keep2share

waltz autumn sexart

Teen Tits Tube, Young Girls Porn Videos 224467 ryushare uploaded keep2share

Teen Tits Tube, Young Girls Porn Videos 224467

www hd video xxx old 226453 ryushare uploaded keep2share

www hd video xxx old 226453

Kiki – Panties Free Day ryushare uploaded keep2share

Kiki – Panties Free Day

descargar cindy_96 226727 ryushare uploaded keep2share

descargar cindy_96 226727

18xGirls Fucked Virgin teen ryushare uploaded keep2share

18xGirls Fucked Virgin teen

Teenies Videos – Teen Porn, Teen Sex, XXX Free Videos 2408 ryushare uploaded keep2share

Teenies Videos – Teen Porn, Teen Sex, XXX Free Videos 2408

porn xxx sex movies mkv free download 226603 ryushare uploaded keep2share

porn xxx sex movies mkv free download 226603

Any sex full hd x art porn vidivos free ryushare uploaded keep2share

Any sex full hd x art porn vidivos free

Hardcore Sex Hub 225124 ryushare uploaded keep2share

Hardcore Sex Hub 225124

Veronika – Awesome sex with hot teeny ryushare uploaded keep2share

Veronika – Awesome sex with hot teeny

Porn teen hd downloads 225845 ryushare uploaded keep2share

Porn teen hd downloads 225845

Teens sex mania 223786 ryushare uploaded keep2share

Teens sex mania 223786

Teen porn xxx 224836 ryushare uploaded keep2share

Teen porn xxx 224836

21Naturals.com Michelle Moore – Blindfolded ryushare uploaded keep2share

21Naturals.com Michelle Moore – Blindfolded

SEX HD V MOVIE PC COM 226146 ryushare uploaded keep2share

SEX HD V MOVIE PC COM 226146

Porn HD Sex HD Teen Sex 2573 ryushare uploaded keep2share

Porn HD Sex HD Teen Sex 2573

[FTVGirls.com] 2016-10-07 – Eva & Violet Starr – College Girls In Love [Lesbo, Toys, Fisting, 1080p] ryushare uploaded keep2share

[FTVGirls.com] 2016-10-07 – Eva & Violet Starr – College Girls In Love [Lesbo, Toys, Fisting, 1080p]

Amateur Teen Sex 4995 ryushare uploaded keep2share

Amateur Teen Sex 4995

titshed net tube 226095 ryushare uploaded keep2share

titshed net tube 226095

Porn teen hd downloads 224721 ryushare uploaded keep2share

Porn teen hd downloads 224721

anjelica join the fun keep2share ryushare uploaded keep2share

anjelica join the fun keep2share

download hd sex vids for pc 226447 ryushare uploaded keep2share

download hd sex vids for pc 226447

hard fuck hd image download 226631 ryushare uploaded keep2share

hard fuck hd image download 226631

High Definition Movies on HD 5578 ryushare uploaded keep2share

High Definition Movies on HD 5578

sex videos of 4 MB to download 226246 ryushare uploaded keep2share

sex videos of 4 MB to download 226246

Www teen77 com free dawonlorld ryushare uploaded keep2share

Www teen77 com free dawonlorld

Teen porn movies 2132 ryushare uploaded keep2share

Teen porn movies 2132

Young Sex Movies 2737 ryushare uploaded keep2share

Young Sex Movies 2737

Babes.com Linda Sweet, Susan Ayn, Victoria Daniels ryushare uploaded keep2share

Babes.com Linda Sweet, Susan Ayn, Victoria Daniels

Report broken links / Post a comment

You must be logged in to post a comment.



General\r\nComplete name : D:HD Teens Download Porn Sex clips movies Tube.xxxMNDBGsrMNDBGsr.wmv\r\nFormat : Windows Media\r\nFile size : 910 MiB\r\nDuration : 29mn 59s\r\nOverall bit rate mode : Constant\r\nOverall bit rate : 4 242 Kbps\r\nMaximum Overall bit rate : 4 258 Kbps\r\nEncoded date : UTC 2010-06-15 16:11:40.101\r\n\r\nVideo\r\nID : 2\r\nFormat : VC-1\r\nFormat profile : MP@HL\r\nCodec ID : WMV3\r\nCodec ID/Info : Windows Media Video 9\r\nCodec ID/Hint : WMV3\r\nDescription of the codec : Windows Media Video 9 - Professional\r\nDuration : 29mn 59s\r\nBit rate mode : Constant\r\nBit rate : 4 096 Kbps\r\nWidth : 1 280 pixels\r\nHeight : 720 pixels\r\nDisplay aspect ratio : 16:9\r\nFrame rate : 25.000 fps\r\nColor space : YUV\r\nChroma subsampling : 4:2:0\r\nBit depth : 8 bits\r\nScan type : Progressive\r\nCompression mode : Lossy\r\nBits/(Pixel*Frame) : 0.178\r\nStream size : 879 MiB (97%)\r\nLanguage : Russian\r\nNumberOfFrames : 44985\r\n\r\nAudio\r\nID : 1\r\nFormat : WMA\r\nFormat version : Version 2\r\nCodec ID : 161\r\nCodec ID/Info : Windows Media Audio\r\nDescription of the codec : Windows Media Audio 9.2 - 128 kbps, 44 kHz, stereo 1-pass CBR\r\nDuration : 29mn 59s\r\nBit rate mode : Constant\r\nBit rate : 128 Kbps\r\nChannel(s) : 2 channels\r\nSampling rate : 44.1 KHz\r\nBit depth : 16 bits\r\nStream size : 27.5 MiB (3%)\r\nLanguage : Russian\r\nNumberOfFrames : 4847\r\n\r\n