Hot Teen Sex HD videos 1748

8 Teen XXX - Teen Sex 1751Teen Sex Videos Tube Movies 1740

Posted in Amateur, HD Porn, Sex Movies, Teen | 42348 Views |


Rate this girl !!!




\r\n\r\nhttp://img102.imagetwist.com/i/05265/f38w7klx2pvo.jpeg\r\n\r\n Link(533 Mb||17:15||1280*720||MP4)



DOWNLOAD

Keep2share.cc - Uploaded.net - Openload.co - Rapidu.net


http://keep2share.cc/file/630c598fd1dbd
http://ryushare.com/xp1zy8bygbdw/BSGMRKhs.rar
http://ul.to/9edjstoj


Premium here:
uploaded.net
keep2share.cc
rapidu.net.cc


Teens related to Hot Teen Sex HD videos 1748


Beata Fucking in swimming pool ryushare uploaded keep2share

Beata Fucking in swimming pool

xxcsex video ryushare uploaded keep2share

xxcsex video

Young Sex Movies 3968 ryushare uploaded keep2share

Young Sex Movies 3968

Uploaded net porn 4879 ryushare uploaded keep2share

Uploaded net porn 4879

Young XXX Tube Videos 3564 ryushare uploaded keep2share

Young XXX Tube Videos 3564

Amateur Teen Sex 4729 ryushare uploaded keep2share

Amateur Teen Sex 4729

Porn party teen girls 224438 ryushare uploaded keep2share

Porn party teen girls 224438

Young Virgin Pussy Teen Fuck Tube 224968 ryushare uploaded keep2share

Young Virgin Pussy Teen Fuck Tube 224968

Wow porn tube movies 224325 ryushare uploaded keep2share

Wow porn tube movies 224325

Hot Teen Sex 3744 ryushare uploaded keep2share

Hot Teen Sex 3744

Teen xxx sex hd 225384 ryushare uploaded keep2share

Teen xxx sex hd 225384

Porn HD Sex HD Teen Sex 224962 ryushare uploaded keep2share

Porn HD Sex HD Teen Sex 224962

Hot Teen Sex HD videos 1578 ryushare uploaded keep2share

Hot Teen Sex HD videos 1578

HD Porn Videos 1169 ryushare uploaded keep2share

HD Porn Videos 1169

antartika poeno sex 226048 ryushare uploaded keep2share

antartika poeno sex 226048

Young legal porn clips 3026 ryushare uploaded keep2share

Young legal porn clips 3026

Amateur Teen Sex 224827 ryushare uploaded keep2share

Amateur Teen Sex 224827

Karol Lilien – Sounds Of Passion ryushare uploaded keep2share

Karol Lilien – Sounds Of Passion

fucking pix hd download ryushare uploaded keep2share

fucking pix hd download

tube8hd video ryushare uploaded keep2share

tube8hd video

xxx sex hd video mp4 226455 ryushare uploaded keep2share

xxx sex hd video mp4 226455

Teen porn movies 2225 ryushare uploaded keep2share

Teen porn movies 2225

Jada – A Manwhore For Me ryushare uploaded keep2share

Jada – A Manwhore For Me

HD porn uploaded 3712 ryushare uploaded keep2share

HD porn uploaded 3712

Porn party teen girls 224442 ryushare uploaded keep2share

Porn party teen girls 224442

Porn HD Sex HD Teen Sex 225967 ryushare uploaded keep2share

Porn HD Sex HD Teen Sex 225967

HD Teen Sex Tube 225487 ryushare uploaded keep2share

HD Teen Sex Tube 225487

www xvedeo comhd ryushare uploaded keep2share

www xvedeo comhd

18yearporn hd 226684 ryushare uploaded keep2share

18yearporn hd 226684

Young XXX Tube Videos 223682 ryushare uploaded keep2share

Young XXX Tube Videos 223682

Teen porn movies 224601 ryushare uploaded keep2share

Teen porn movies 224601

Hot Tina, Kayla Green – Lessons in Lust ryushare uploaded keep2share

Hot Tina, Kayla Green – Lessons in Lust

89 hd sex videos in 226208 ryushare uploaded keep2share

89 hd sex videos in 226208

Spanish Party Hot Teens HD ryushare uploaded keep2share

Spanish Party Hot Teens HD

sex wwwxxx xcxx ryushare uploaded keep2share

sex wwwxxx xcxx

Report broken links / Post a comment

You must be logged in to post a comment.



General\r\nComplete name : D:HD Teens Download Porn Sex clips movies Tube.xxxBSGMRKhsBSGMRKhs.mp4\r\nFormat : MPEG-4\r\nFormat profile : Base Media\r\nCodec ID : isom\r\nFile size : 533 MiB\r\nDuration : 17mn 15s\r\nOverall bit rate : 4 316 Kbps\r\nWriting application : Lavf55.7.100\r\n\r\nVideo\r\nID : 1\r\nFormat : AVC\r\nFormat/Info : Advanced Video Codec\r\nFormat profile : High@L4.1\r\nFormat settings, CABAC : Yes\r\nFormat settings, ReFrames : 5 frames\r\nCodec ID : avc1\r\nCodec ID/Info : Advanced Video Coding\r\nDuration : 17mn 15s\r\nBit rate : 4 000 Kbps\r\nWidth : 1 280 pixels\r\nHeight : 720 pixels\r\nDisplay aspect ratio : 16:9\r\nFrame rate mode : Constant\r\nFrame rate : 29.970 fps\r\nColor space : YUV\r\nChroma subsampling : 4:2:0\r\nBit depth : 8 bits\r\nScan type : Progressive\r\nBits/(Pixel*Frame) : 0.145\r\nStream size : 494 MiB (93%)\r\nWriting library : x264 core 133 r2334 a3ac64b\r\nEncoding settings : cabac=1 / ref=5 / deblock=1:0:0 / analyse=0x3:0x113 / me=umh / subme=8 / psy=1 / psy_rd=1.00:0.00 / mixed_ref=1 / me_range=16 / chroma_me=1 / trellis=1 / 8x8dct=1 / cqm=0 / deadzone=21,11 / fast_pskip=1 / chroma_qp_offset=-2 / threads=6 / lookahead_threads=1 / sliced_threads=0 / nr=0 / decimate=1 / interlaced=0 / bluray_compat=0 / constrained_intra=0 / bframes=3 / b_pyramid=2 / b_adapt=2 / b_bias=0 / direct=3 / weightb=1 / open_gop=0 / weightp=2 / keyint=60 / keyint_min=6 / scenecut=40 / intra_refresh=0 / rc_lookahead=50 / rc=abr / mbtree=1 / bitrate=4000 / ratetol=1.0 / qcomp=0.60 / qpmin=0 / qpmax=69 / qpstep=4 / ip_ratio=1.40 / aq=1:1.00\r\nLanguage : English\r\nTagged date : UTC 2013-06-01 08:40:25\r\n\r\nAudio\r\nID : 2\r\nFormat : AAC\r\nFormat/Info : Advanced Audio Codec\r\nFormat profile : LC\r\nCodec ID : 40\r\nDuration : 17mn 15s\r\nDuration_LastFrame : -9ms\r\nBit rate mode : Constant\r\nBit rate : 128 Kbps\r\nChannel(s) : 2 channels\r\nChannel positions : Front: L R\r\nSampling rate : 48.0 KHz\r\nCompression mode : Lossy\r\nStream size : 15.8 MiB (3%)\r\nLanguage : English\r\nTagged date : UTC 2013-06-01 08:40:25\r\n\r\n