Izzy Delphine, Michelle, Caroline -The Big Adventure

Young Sex Movies 4459Teen Tits Tube, Young Girls Porn Videos 3923

Posted in HD Porn, Pornstar, Sex Movies, Teen, Threesome | 37849 Views |


Rate this girl !!!




[WowGirls.com / WowFandom.com] Izzy Delphine, Michelle, Caroline (The Big Adventure / 16.08.14) [2014, All Sex, 1080p]\r\n\r\npic\r\n\r\nTime: 00:30:57\r\nHD Video Type: 1080p\r\nVideo: MPEG4 Video (H264) 1920×1080 29.97fps 6469kbps\r\nAudio: AAC 44100Hz stereo 109kbps\r\n\r\nhttp://i65.fastpic.ru/big/2014/0816/7a/b53b438fe05165388f14102414d93a7a.jpg



DOWNLOAD

Keep2share.cc - Uploaded.net - Openload.co - Rapidu.net


http://fileom.com/7xxzqfmy4dzo/The_Big_Adventure_H.D1.8.0.mp4.html
http://k2s.cc/file/6a7cefc533df4/The_Big_Adventure_H.D1.8.0.mp4
http://ul.to/cfkw7rbz/The_Big_Adventure_H.D1.8.0.mp4


Premium here:
uploaded.net
keep2share.cc
rapidu.net.cc


Teens related to Izzy Delphine, Michelle, Caroline -The Big Adventure


nubilefilms com/youporn december 2014 226042 ryushare uploaded keep2share

nubilefilms com/youporn december 2014 226042

free hd teen porn clips ryushare uploaded keep2share

free hd teen porn clips

First time Sexual Films 18 sex xxx 2101 ryushare uploaded keep2share

First time Sexual Films 18 sex xxx 2101

Free Porn Videos Xxx Movies Pussy Porn 5324 ryushare uploaded keep2share

Free Porn Videos Xxx Movies Pussy Porn 5324

1280×920 hd porn movie 226498 ryushare uploaded keep2share

1280×920 hd porn movie 226498

Kiki Vidis ryushare uploaded keep2share

Kiki Vidis

sex compress videos 226457 ryushare uploaded keep2share

sex compress videos 226457

xxx purn HD dawnlod ryushare uploaded keep2share

xxx purn HD dawnlod

Young Virgin Pussy Teen Fuck Tube 2308 ryushare uploaded keep2share

Young Virgin Pussy Teen Fuck Tube 2308

Young XXX Tube Videos 3540 ryushare uploaded keep2share

Young XXX Tube Videos 3540

Wow Porn Movies download) 224734 ryushare uploaded keep2share

Wow Porn Movies download) 224734

Kissme Girl – Aidra Fox & Sasha ryushare uploaded keep2share

Kissme Girl – Aidra Fox & Sasha

August Ames – Work It Out ryushare uploaded keep2share

August Ames – Work It Out

1020p hd sex videos 226575 ryushare uploaded keep2share

1020p hd sex videos 226575

TrickyMasseur.com Avina ryushare uploaded keep2share

TrickyMasseur.com Avina

Free Young Porn Videos XXX Teen Porn 225794 ryushare uploaded keep2share

Free Young Porn Videos XXX Teen Porn 225794

HD Teens Sex Tube Videos XxX 1816 ryushare uploaded keep2share

HD Teens Sex Tube Videos XxX 1816

littel fresh teen porn mp4 226046 ryushare uploaded keep2share

littel fresh teen porn mp4 226046

Julie Vee – Hardcore ryushare uploaded keep2share

Julie Vee – Hardcore

Hot Teen Sex HD videos 225101 ryushare uploaded keep2share

Hot Teen Sex HD videos 225101

xvideos hd com dounlod 226335 ryushare uploaded keep2share

xvideos hd com dounlod 226335

HD Teen Sex Tube 4271 ryushare uploaded keep2share

HD Teen Sex Tube 4271

Alexia aka Kitty Jane (Secret Part I) ryushare uploaded keep2share

Alexia aka Kitty Jane (Secret Part I)

xxx teen clips 226044 ryushare uploaded keep2share

xxx teen clips 226044

Young Sex Movies 4459 ryushare uploaded keep2share

Young Sex Movies 4459

www full hd porn downlod 226719 ryushare uploaded keep2share

www full hd porn downlod 226719

AbbyWinters.com – Carmina & Pablo ryushare uploaded keep2share

AbbyWinters.com – Carmina & Pablo

xxx sex hd video mp4 226455 ryushare uploaded keep2share

xxx sex hd video mp4 226455

Veronica Radke Tube Young Sex 3483 ryushare uploaded keep2share

Veronica Radke Tube Young Sex 3483

Hot download sex girls movies 224915 ryushare uploaded keep2share

Hot download sex girls movies 224915

Porn HD Sex HD Teen Sex 224013 ryushare uploaded keep2share

Porn HD Sex HD Teen Sex 224013

Good Teen Tube Sexy Young Naked Girls Movies 2395 ryushare uploaded keep2share

Good Teen Tube Sexy Young Naked Girls Movies 2395

purn mania 226696 ryushare uploaded keep2share

purn mania 226696

www boys to boy xxx download videos com 226381 ryushare uploaded keep2share

www boys to boy xxx download videos com 226381

SexArt.com Dominica Phoenix, Katy Rose, Lexie Dona ryushare uploaded keep2share

SexArt.com Dominica Phoenix, Katy Rose, Lexie Dona

Report broken links / Post a comment

You must be logged in to post a comment.



General\r\nComplete name : D:teens porn movies clips xxx sex The_Big_Adventure_H.D1.8.0.mp4\r\nFormat : MPEG-4\r\nFormat profile : Base Media\r\nCodec ID : isom\r\nFile size : 1.42 GiB\r\nDuration : 30mn 57s\r\nOverall bit rate mode : Variable\r\nOverall bit rate : 6 588 Kbps\r\nWriting application : Lavf55.33.100\r\n\r\nVideo\r\nID : 1\r\nFormat : AVC\r\nFormat/Info : Advanced Video Codec\r\nFormat profile : High@L5.0\r\nFormat settings, CABAC : Yes\r\nFormat settings, ReFrames : 5 frames\r\nCodec ID : avc1\r\nCodec ID/Info : Advanced Video Coding\r\nDuration : 30mn 57s\r\nBit rate : 6 470 Kbps\r\nWidth : 1 920 pixels\r\nHeight : 1 080 pixels\r\nDisplay aspect ratio : 16:9\r\nFrame rate mode : Constant\r\nFrame rate : 29.970 fps\r\nColor space : YUV\r\nChroma subsampling : 4:2:0\r\nBit depth : 8 bits\r\nScan type : Progressive\r\nBits/(Pixel*Frame) : 0.104\r\nStream size : 1.40 GiB (98%)\r\nWriting library : x264 core 138\r\nEncoding settings : cabac=1 / ref=5 / deblock=1:-1:-1 / analyse=0x3:0x113 / me=umh / subme=8 / psy=1 / psy_rd=1.00:0.15 / mixed_ref=1 / me_range=16 / chroma_me=1 / trellis=1 / 8x8dct=1 / cqm=0 / deadzone=21,11 / fast_pskip=1 / chroma_qp_offset=-3 / threads=8 / lookahead_threads=1 / sliced_threads=0 / nr=0 / decimate=1 / interlaced=0 / bluray_compat=0 / constrained_intra=0 / bframes=3 / b_pyramid=2 / b_adapt=2 / b_bias=0 / direct=3 / weightb=1 / open_gop=0 / weightp=2 / keyint=250 / keyint_min=25 / scenecut=40 / intra_refresh=0 / rc_lookahead=50 / rc=crf / mbtree=1 / crf=20.0 / qcomp=0.60 / qpmin=0 / qpmax=69 / qpstep=4 / ip_ratio=1.40 / aq=1:1.00\r\nLanguage : Russian\r\n\r\nAudio\r\nID : 2\r\nFormat : AAC\r\nFormat/Info : Advanced Audio Codec\r\nFormat profile : LC\r\nCodec ID : 40\r\nDuration : 30mn 57s\r\nBit rate mode : Variable\r\nBit rate : 109 Kbps\r\nMaximum bit rate : 192 Kbps\r\nChannel(s) : 2 channels\r\nChannel positions : Front: L R\r\nSampling rate : 44.1 KHz\r\nCompression mode : Lossy\r\nStream size : 24.2 MiB (2%)\r\nLanguage : Russian\r\n\r\n