J. Joanna – I’m Eve. Want An Apple?

Nicole – Summertime sex hookupAnjelica – My Inner Feelings

Posted in HD Porn, Pornstar, Sex Movies, Teen | 7512 Views |


Rate this girl !!!


(24 raters, 84 scores, average: 3.50 out of 5, 70%)

[WowPorn.com] J. Joanna – I’m Eve. Want An Apple?

cover

1920x1080p / MP4 / 628.84 MB

SCREENSHOTS:

screens



DOWNLOAD

Keep2share.cc - Uploaded.net - Openload.co - Rapidu.net



Premium here:
uploaded.net
keep2share.cc
rapidu.net.cc


Teens related to J. Joanna – I’m Eve. Want An Apple?


Young Sex Movies 2411 ryushare uploaded keep2share

Young Sex Movies 2411

Long Julie Vee movies 226110 ryushare uploaded keep2share

Long Julie Vee movies 226110

www xxx Bif videos HD ryushare uploaded keep2share

www xxx Bif videos HD

PC HD MP4 XXX COM 226748 ryushare uploaded keep2share

PC HD MP4 XXX COM 226748

College Teen Sex 1898 ryushare uploaded keep2share

College Teen Sex 1898

xxxsxevid collega com ryushare uploaded keep2share

xxxsxevid collega com

Klixen – K Two Teasing Tongues 12 – A ryushare uploaded keep2share

Klixen – K Two Teasing Tongues 12 – A

X-Angels.com Lida ryushare uploaded keep2share

X-Angels.com Lida

Movies Young legal porn 225865 ryushare uploaded keep2share

Movies Young legal porn 225865

HD Porn Videos 4556 ryushare uploaded keep2share

HD Porn Videos 4556

handjob porn mp4 226429 ryushare uploaded keep2share

handjob porn mp4 226429

download hd fucking video full 226558 ryushare uploaded keep2share

download hd fucking video full 226558

Free High Quality Sex Movies 4274 ryushare uploaded keep2share

Free High Quality Sex Movies 4274

Free Young Porn Videos XXX Teen Porn 1836 ryushare uploaded keep2share

Free Young Porn Videos XXX Teen Porn 1836

Teen Porn XXX Tube 225861 ryushare uploaded keep2share

Teen Porn XXX Tube 225861

HD Porn Videos 224706 ryushare uploaded keep2share

HD Porn Videos 224706

High Definition Movies on HD 224432 ryushare uploaded keep2share

High Definition Movies on HD 224432

keira winters grup hard porn 226635 ryushare uploaded keep2share

keira winters grup hard porn 226635

hd low space porn video ryushare uploaded keep2share

hd low space porn video

Wow Girls Porn Clips download 225841 ryushare uploaded keep2share

Wow Girls Porn Clips download 225841

Teen porn movies 3184 ryushare uploaded keep2share

Teen porn movies 3184

Jessica Rayne – Jerk Off Instruction – Blowjob ryushare uploaded keep2share

Jessica Rayne – Jerk Off Instruction – Blowjob

hd hardcoresex teensex download 226688 ryushare uploaded keep2share

hd hardcoresex teensex download 226688

Dominika & Nathaly Heaven – Fistgasm ryushare uploaded keep2share

Dominika & Nathaly Heaven – Fistgasm

College Teen Sex 5006 ryushare uploaded keep2share

College Teen Sex 5006

8 Teen XXX – Teen Sex 224622 ryushare uploaded keep2share

8 Teen XXX – Teen Sex 224622

Teen Sex Movies Young Porn Tube Vids 5156 ryushare uploaded keep2share

Teen Sex Movies Young Porn Tube Vids 5156

Russian Girls Cumshot Compilation ryushare uploaded keep2share

Russian Girls Cumshot Compilation

HQ Sex Movies Download 4625 ryushare uploaded keep2share

HQ Sex Movies Download 4625

Young teens tube hot girls free porn video 4952 ryushare uploaded keep2share

Young teens tube hot girls free porn video 4952

Teen Tits Tube, Young Girls Porn Videos 2329 ryushare uploaded keep2share

Teen Tits Tube, Young Girls Porn Videos 2329

HD Porn Teen Sex Videos 4043 ryushare uploaded keep2share

HD Porn Teen Sex Videos 4043

Young Virgin Pussy Teen Fuck Tube 4366 ryushare uploaded keep2share

Young Virgin Pussy Teen Fuck Tube 4366

video9 inx ryushare uploaded keep2share

video9 inx

Handjob from cute amateur wife in hot amateur porn 3 ryushare uploaded keep2share

Handjob from cute amateur wife in hot amateur porn 3

Report broken links / Post a comment

You must be logged in to post a comment.



General
Complete name : D:[WowPorn.com] J. Joanna – I’m Eve. Want An Apple? .mp4
Format : MPEG-4
Format profile : Base Media
Codec ID : isom
File size : 629 MiB
Duration : 20mn 55s
Overall bit rate mode : Variable
Overall bit rate : 4 202 Kbps
Writing application : Lavf55.33.100

Video
ID : 1
Format : AVC
Format/Info : Advanced Video Codec
Format profile : High@L5.0
Format settings, CABAC : Yes
Format settings, ReFrames : 5 frames
Codec ID : avc1
Codec ID/Info : Advanced Video Coding
Duration : 20mn 55s
Bit rate : 4 085 Kbps
Width : 1 920 pixels
Height : 1 080 pixels
Display aspect ratio : 16:9
Frame rate mode : Constant
Frame rate : 29.970 fps
Color space : YUV
Chroma subsampling : 4:2:0
Bit depth : 8 bits
Scan type : Progressive
Bits/(Pixel*Frame) : 0.066
Stream size : 611 MiB (97%)
Writing library : x264 core 138
Encoding settings : cabac=1 / ref=5 / deblock=1:-1:-1 / analyse=0x3:0x113 / me=umh / subme=8 / psy=1 / psy_rd=1.00:0.15 / mixed_ref=1 / me_range=16 / chroma_me=1 / trellis=1 / 8x8dct=1 / cqm=0 / deadzone=21,11 / fast_pskip=1 / chroma_qp_offset=-3 / threads=8 / lookahead_threads=1 / sliced_threads=0 / nr=0 / decimate=1 / interlaced=0 / bluray_compat=0 / constrained_intra=0 / bframes=3 / b_pyramid=2 / b_adapt=2 / b_bias=0 / direct=3 / weightb=1 / open_gop=0 / weightp=2 / keyint=250 / keyint_min=25 / scenecut=40 / intra_refresh=0 / rc_lookahead=50 / rc=crf / mbtree=1 / crf=20.0 / qcomp=0.60 / qpmin=0 / qpmax=69 / qpstep=4 / ip_ratio=1.40 / aq=1:1.00
Language : Russian

Audio
ID : 2
Format : AAC
Format/Info : Advanced Audio Codec
Format profile : LC
Codec ID : 40
Duration : 20mn 55s
Bit rate mode : Variable
Bit rate : 108 Kbps
Maximum bit rate : 192 Kbps
Channel(s) : 2 channels
Channel positions : Front: L R
Sampling rate : 44.1 KHz
Compression mode : Lossy
Stream size : 16.1 MiB (3%)
Language : Russian