Janice Griffith – Fucking Her Right

Jessie Volt, Sierra Nevadah – Blonde SeductionMindy – As We Lay

Posted in HD Porn, Pornstar, Sex Movies, Teen | 6086 Views |


Rate this girl !!!


(12 raters, 46 scores, average: 3.83 out of 5, 76.67%)

cover

\r\n

1920x1080p / MP4 / 1.54 GB

\r\n\r\n

[Nubiles-Porn.com] Janice Griffith – Fucking Her Right

\r\n \r\n

SCREENSHOTS:

\r\n

screens



DOWNLOAD

Keep2share.cc - Uploaded.net - Openload.co - Rapidu.net


http://k2s.cc/file/4d8d6c1cc0c52/J4n1c3.Gr1ff1th.-.Fuck1ng.H3r.R1ght.HD.mp4
http://streamcloud.eu/r0l3dt9nj4ja/J4n1c3.Gr1ff1th.-.Fuck1ng.H3r.R1ght.HD.mp4.html
http://ul.to/q0sbf38b/J4n1c3.Gr1ff1th.-.Fuck1ng.H3r.R1ght.HD.mp4


Premium here:
uploaded.net
keep2share.cc
rapidu.net.cc

Incoming search terms:

  • fucking her right
  • Janice Griffith - Fucking Her Right


Teens related to Janice Griffith – Fucking Her Right


HD Porn Teen Sex Videos 225413 ryushare uploaded keep2share

HD Porn Teen Sex Videos 225413

Massage girl ryushare uploaded keep2share

Massage girl

Adult Hardcore XXX Sex Videos 1343 ryushare uploaded keep2share

Adult Hardcore XXX Sex Videos 1343

Teen Porn XXX Tube 224141 ryushare uploaded keep2share

Teen Porn XXX Tube 224141

Good Teen Tube Sexy Young Naked Girls Movies 224024 ryushare uploaded keep2share

Good Teen Tube Sexy Young Naked Girls Movies 224024

Nude Teens fucking hard 4199 ryushare uploaded keep2share

Nude Teens fucking hard 4199

Young XXX Tube Videos 4335 ryushare uploaded keep2share

Young XXX Tube Videos 4335

Nubilefilms.com Elena Rae – Russian Beauty ryushare uploaded keep2share

Nubilefilms.com Elena Rae – Russian Beauty

SpinChix mp4 226131 ryushare uploaded keep2share

SpinChix mp4 226131

Chinara, Peachy – Cum And Be Happy ryushare uploaded keep2share

Chinara, Peachy – Cum And Be Happy

HQ Sex Movies Download 4226 ryushare uploaded keep2share

HQ Sex Movies Download 4226

Porno movies young teens lesbian 224059 ryushare uploaded keep2share

Porno movies young teens lesbian 224059

HD teen sex tube 3568 ryushare uploaded keep2share

HD teen sex tube 3568

Hardcore Sex Hub 224542 ryushare uploaded keep2share

Hardcore Sex Hub 224542

College Teen Sex 225693 ryushare uploaded keep2share

College Teen Sex 225693

sex com hd9in 226365 ryushare uploaded keep2share

sex com hd9in 226365

Teen Sex Movies 1242 ryushare uploaded keep2share

Teen Sex Movies 1242

xxxvideo s HD com 226265 ryushare uploaded keep2share

xxxvideo s HD com 226265

Teen porn xxx 225114 ryushare uploaded keep2share

Teen porn xxx 225114

Girls do porn downloads 4056 ryushare uploaded keep2share

Girls do porn downloads 4056

girls high quality sex videos download 226282 ryushare uploaded keep2share

girls high quality sex videos download 226282

alyona klara lesbian 226112 ryushare uploaded keep2share

alyona klara lesbian 226112

Evening at home with brunette ryushare uploaded keep2share

Evening at home with brunette

Hd young videos 225366 ryushare uploaded keep2share

Hd young videos 225366

Young xxx 225249 ryushare uploaded keep2share

Young xxx 225249

noveteens girls models clips 226158 ryushare uploaded keep2share

noveteens girls models clips 226158

HD Porn Videos 225354 ryushare uploaded keep2share

HD Porn Videos 225354

wow grils ryushare uploaded keep2share

wow grils

1020p hd sex videos 226575 ryushare uploaded keep2share

1020p hd sex videos 226575

Wow girls porn teens 3033 ryushare uploaded keep2share

Wow girls porn teens 3033

Hot Teen Sex HD videos 1578 ryushare uploaded keep2share

Hot Teen Sex HD videos 1578

Small girls and boys porn 4062 ryushare uploaded keep2share

Small girls and boys porn 4062

Young Sex Movies 1335 ryushare uploaded keep2share

Young Sex Movies 1335

Teenage Fuck Clips 225863 ryushare uploaded keep2share

Teenage Fuck Clips 225863

Porn teen hd downloads 224289 ryushare uploaded keep2share

Porn teen hd downloads 224289

Report broken links / Post a comment

You must be logged in to post a comment.



General\r\nComplete name : D:[Nubiles-Porn.com] Janice Griffith – Fucking Her Right.HD.mp4\r\nFormat : MPEG-4\r\nFormat profile : Base Media\r\nCodec ID : isom\r\nFile size : 1.54 GiB\r\nDuration : 22mn 46s\r\nOverall bit rate : 9 691 Kbps\r\nMovie name : RARBG.COM - Nubiles-Porn.14.09.04.Janice.Griffith.Fucking.Her.Right.XXX.1080p.MP4-KTR\r\nWriting application : Lavf55.48.100\r\nComment : RARBG.COM - Nubiles-Porn.14.09.04.Janice.Griffith.Fucking.Her.Right.XXX.1080p.MP4-KTR\r\n\r\nVideo\r\nID : 1\r\nFormat : AVC\r\nFormat/Info : Advanced Video Codec\r\nFormat profile : Main@L4.0\r\nFormat settings, CABAC : Yes\r\nFormat settings, ReFrames : 4 frames\r\nCodec ID : avc1\r\nCodec ID/Info : Advanced Video Coding\r\nDuration : 22mn 46s\r\nBit rate : 9 568 Kbps\r\nWidth : 1 920 pixels\r\nHeight : 1 080 pixels\r\nDisplay aspect ratio : 16:9\r\nFrame rate mode : Constant\r\nFrame rate : 29.970 fps\r\nColor space : YUV\r\nChroma subsampling : 4:2:0\r\nBit depth : 8 bits\r\nScan type : Progressive\r\nBits/(Pixel*Frame) : 0.154\r\nStream size : 1.52 GiB (99%)\r\nWriting library : x264 core 142\r\nEncoding settings : cabac=1 / ref=2 / deblock=1:-1:-1 / analyse=0x1:0x111 / me=umh / subme=8 / psy=1 / psy_rd=1.00:0.15 / mixed_ref=1 / me_range=16 / chroma_me=1 / trellis=1 / 8x8dct=0 / cqm=0 / deadzone=21,11 / fast_pskip=1 / chroma_qp_offset=-3 / threads=12 / lookahead_threads=2 / sliced_threads=0 / nr=0 / decimate=1 / interlaced=0 / bluray_compat=0 / constrained_intra=0 / bframes=3 / b_pyramid=2 / b_adapt=2 / b_bias=0 / direct=3 / weightb=1 / open_gop=0 / weightp=0 / keyint=240 / keyint_min=24 / scenecut=40 / intra_refresh=0 / rc_lookahead=50 / rc=crf / mbtree=1 / crf=18.0 / qcomp=0.60 / qpmin=0 / qpmax=69 / qpstep=4 / ip_ratio=1.40 / aq=1:1.00\r\nLanguage : English\r\n\r\nAudio\r\nID : 2\r\nFormat : AAC\r\nFormat/Info : Advanced Audio Codec\r\nFormat profile : LC\r\nCodec ID : 40\r\nDuration : 22mn 46s\r\nDuration_LastFrame : 6ms\r\nBit rate mode : Constant\r\nBit rate : 115 Kbps\r\nChannel(s) : 2 channels\r\nChannel positions : Front: L R\r\nSampling rate : 44.1 KHz\r\nCompression mode : Lossy\r\nStream size : 18.7 MiB (1%)\r\nLanguage : English\r\n\r\n