Jenny Simons – At The Right Time

Katy Rose & Lutro – LubricousAlexis Brill – Waltz With Me – Autumn

Posted in HD Porn, Pornstar, Sex Movies, Teen | 6392 Views |


Rate this girl !!!




cover\r\n\r\n1920x1080p / MP4 / 1.14 GB\r\n

[SexArt.com] Jenny Simons – At The Right Time

\r\nSCREENSHOTS:\r\n\r\nscreens



DOWNLOAD

Keep2share.cc - Uploaded.net - Openload.co - Rapidu.net


http://k2s.cc/file/975077069f550/j3nny.s1mons.4t.th3.r1ght.t1m3.mp4
http://ul.to/ycmrwpae/j3n.n.y.s1.m.0.ns.4t.th3.r1.ght.t1.m3.mp4


Premium here:
uploaded.net
keep2share.cc
rapidu.net.cc


Teens related to Jenny Simons – At The Right Time


HQ Sex Movies Download 225044 ryushare uploaded keep2share

HQ Sex Movies Download 225044

HD Teen Sex Tube 225339 ryushare uploaded keep2share

HD Teen Sex Tube 225339

Porno movies young teens lesbian 224059 ryushare uploaded keep2share

Porno movies young teens lesbian 224059

Fresh Teen Videos 223852 ryushare uploaded keep2share

Fresh Teen Videos 223852

Kiara Lord – Rock my world ryushare uploaded keep2share

Kiara Lord – Rock my world

Teena Dolly ryushare uploaded keep2share

Teena Dolly

NubileFilms.com Karol Lilien – Sounds Of Passion ryushare uploaded keep2share

NubileFilms.com Karol Lilien – Sounds Of Passion

sexy video9 hd xxx in 226643 ryushare uploaded keep2share

sexy video9 hd xxx in 226643

Asustrlia sex videos hd com 226426 ryushare uploaded keep2share

Asustrlia sex videos hd com 226426

Tube Young Sex Amateur Orgy 4891 ryushare uploaded keep2share

Tube Young Sex Amateur Orgy 4891

The best Teen sex 225855 ryushare uploaded keep2share

The best Teen sex 225855

www sexhdmovus com ryushare uploaded keep2share

www sexhdmovus com

Hd 89xxx vedios com 226476 ryushare uploaded keep2share

Hd 89xxx vedios com 226476

High Definition Movies on HD 225408 ryushare uploaded keep2share

High Definition Movies on HD 225408

Teen xxx sex hd 5239 ryushare uploaded keep2share

Teen xxx sex hd 5239

Watch Teen Sex Videos HD 2098 ryushare uploaded keep2share

Watch Teen Sex Videos HD 2098

www 18porn com/hot hd video 226736 ryushare uploaded keep2share

www 18porn com/hot hd video 226736

Teen porn xxx 224836 ryushare uploaded keep2share

Teen porn xxx 224836

Hd young videos 224660 ryushare uploaded keep2share

Hd young videos 224660

Teen Porn XXX Tube 225246 ryushare uploaded keep2share

Teen Porn XXX Tube 225246

High Definition Movies on HD Teen Porn XXX Tube 4650 ryushare uploaded keep2share

High Definition Movies on HD Teen Porn XXX Tube 4650

Www teen77 com free dawonlorld ryushare uploaded keep2share

Www teen77 com free dawonlorld

Teen porn xxx 224082 ryushare uploaded keep2share

Teen porn xxx 224082

Caught Up In The Moment – Carmen Fox ryushare uploaded keep2share

Caught Up In The Moment – Carmen Fox

HD sex movies downloads 2913 ryushare uploaded keep2share

HD sex movies downloads 2913

Adult Hardcore XXX Sex Videos 3795 ryushare uploaded keep2share

Adult Hardcore XXX Sex Videos 3795

Wow Girls Porn Clips download 224386 ryushare uploaded keep2share

Wow Girls Porn Clips download 224386

Teen sex xxx hd 4287 ryushare uploaded keep2share

Teen sex xxx hd 4287

teen 12 porn images 226585 ryushare uploaded keep2share

teen 12 porn images 226585

Teen Tits Tube, Young Girls Porn Videos 2547 ryushare uploaded keep2share

Teen Tits Tube, Young Girls Porn Videos 2547

Teen 18 Porn XXX Clips Naked 224773 ryushare uploaded keep2share

Teen 18 Porn XXX Clips Naked 224773

Free High Quality Sex Movies 225699 ryushare uploaded keep2share

Free High Quality Sex Movies 225699

Wow porn tube movies 225953 ryushare uploaded keep2share

Wow porn tube movies 225953

www xxx hb movi 226762 ryushare uploaded keep2share

www xxx hb movi 226762

Teen xxx sex hd 5540 ryushare uploaded keep2share

Teen xxx sex hd 5540

Report broken links / Post a comment

You must be logged in to post a comment.



General\r\nComplete name : D:[SexArt.com] Jenny Simons – At The Right Time.mp4\r\nFormat : MPEG-4\r\nFormat profile : Base Media\r\nCodec ID : isom\r\nFile size : 1.14 GiB\r\nDuration : 20mn 1s\r\nOverall bit rate : 8 122 Kbps\r\nMovie name : Downloaded from RARBG.COM\r\nWriting application : Lavf55.37.102\r\nComment : Downloaded from RARBG.COM\r\n\r\nVideo\r\nID : 1\r\nFormat : AVC\r\nFormat/Info : Advanced Video Codec\r\nFormat profile : High@L5.0\r\nFormat settings, CABAC : Yes\r\nFormat settings, ReFrames : 5 frames\r\nCodec ID : avc1\r\nCodec ID/Info : Advanced Video Coding\r\nDuration : 20mn 1s\r\nBit rate : 8 000 Kbps\r\nWidth : 1 920 pixels\r\nHeight : 1 080 pixels\r\nDisplay aspect ratio : 16:9\r\nFrame rate mode : Constant\r\nFrame rate : 25.000 fps\r\nColor space : YUV\r\nChroma subsampling : 4:2:0\r\nBit depth : 8 bits\r\nScan type : Progressive\r\nBits/(Pixel*Frame) : 0.154\r\nStream size : 1.12 GiB (98%)\r\nWriting library : x264 core 129 r2245 bc13772\r\nEncoding settings : cabac=1 / ref=5 / deblock=1:0:0 / analyse=0x3:0x113 / me=umh / subme=8 / psy=0 / mixed_ref=1 / me_range=16 / chroma_me=1 / trellis=1 / 8x8dct=1 / cqm=0 / deadzone=21,11 / fast_pskip=1 / chroma_qp_offset=0 / threads=36 / lookahead_threads=6 / sliced_threads=0 / nr=0 / decimate=1 / interlaced=0 / bluray_compat=0 / constrained_intra=0 / bframes=3 / b_pyramid=2 / b_adapt=2 / b_bias=0 / direct=3 / weightb=1 / open_gop=0 / weightp=2 / keyint=250 / keyint_min=25 / scenecut=40 / intra_refresh=0 / rc=2pass / mbtree=0 / bitrate=8000 / ratetol=1.0 / qcomp=0.60 / qpmin=10 / qpmax=51 / qpstep=4 / cplxblur=20.0 / qblur=0.5 / ip_ratio=1.40 / pb_ratio=1.30 / aq=1:1.00\r\nLanguage : English\r\n\r\nAudio\r\nID : 2\r\nFormat : AAC\r\nFormat/Info : Advanced Audio Codec\r\nFormat profile : LC\r\nCodec ID : 40\r\nDuration : 20mn 1s\r\nBit rate mode : Constant\r\nBit rate : 119 Kbps\r\nChannel(s) : 2 channels\r\nChannel positions : Front: L R\r\nSampling rate : 44.1 KHz\r\nCompression mode : Lossy\r\nStream size : 17.0 MiB (1%)\r\nLanguage : English\r\n\r\n