Jessie Volt, Aysha Rouge (K Two Teasing Tongues 13) AB

Klixen - K Two Teasing Tongues 12 - BTwo Teasing Tongues 10 - A

Posted in HD Porn, Pornstar, Sex Movies, Teen, Threesome | 41604 Views |


Rate this girl !!!




pic\r\n

[K Klixen Productions / clips4sale.com] Jessie Volt, Aysha Rouge (K Two Teasing Tongues 13) [2014 г., Blowjob]

\r\nJessie Volt, Aysha Rouge (K Two Teasing Tongues 13)\r\npicImya actress: Jessie Volt, Aysha Rouge\r\nName movie: K Two Teasing Tongues 13\r\nSubsite and site: K Klixen Productions / clips4sale.com\r\nProduction year: 2014\r\nCategory: Blowjob\r\nDuration: 00:41:49\r\nDescription: Super teaser Jessie and Aysha will drive you out of your mind with their tongues … permanently you feel the touch of two soft and wet tongues moving up and down your dripping dick … or they circle around your most sensitive parts. .. they promise you to keep you on the edge for a long time … for a hell of a long time … heavenly … usually only the touch of a tongue is too less stimulation for a man to ejaculate .. . but beeing sandwiched between two skilled tongues is something special … jessie and aysha give you also so much extra optical impressions with their sexy, slow moves … with their soft kissing lips … with their compelling facial expressions … so it’s a pushover for them to tease out your white juice …\r\nVideo Format: AVI\r\nVideo codec: H.264 / AVC\r\nAudio Codec: MP3\r\nVideo: MPEG4 Video (H264) 1280×720 25fps 1714kbps\r\nAudio: MP3 48000Hz stereo 320kbps\r\n\r\n



DOWNLOAD

Keep2share.cc - Uploaded.net - Openload.co - Rapidu.net


http://k2s.cc/file/fe95536a6ea48/4.hj2784.K.Two.T34s1ng.Tongu3s.13.4.%281%29.avi

http://ul.to/oh2gg0ou/4.hj2784.K.Two.T34s1ng.Tongu3s.13.4.(1).avi


Premium here:
uploaded.net
keep2share.cc
rapidu.net.cc


Teens related to Jessie Volt, Aysha Rouge (K Two Teasing Tongues 13) AB


direct link hd porn 225998 ryushare uploaded keep2share

direct link hd porn 225998

HD porn uploaded 3976 ryushare uploaded keep2share

HD porn uploaded 3976

hd xxx teens virgintiy videos free download 226703 ryushare uploaded keep2share

hd xxx teens virgintiy videos free download 226703

Model porno sex 3485 ryushare uploaded keep2share

Model porno sex 3485

sexy video HD down ryushare uploaded keep2share

sexy video HD down

Hot Teen Sex HD videos 1149 ryushare uploaded keep2share

Hot Teen Sex HD videos 1149

Russian amateur – Home Sex ryushare uploaded keep2share

Russian amateur – Home Sex

Tube xxx 225500 ryushare uploaded keep2share

Tube xxx 225500

Remy’s Edging Orgasm Control ryushare uploaded keep2share

Remy’s Edging Orgasm Control

Teens fucked doggy style ryushare uploaded keep2share

Teens fucked doggy style

Teen Sex Porn Videos Free Nude Teens 5623 ryushare uploaded keep2share

Teen Sex Porn Videos Free Nude Teens 5623

Teen Porn XXX Tube 225019 ryushare uploaded keep2share

Teen Porn XXX Tube 225019

www xxx Bif videos HD ryushare uploaded keep2share

www xxx Bif videos HD

Kathia Nobili, Meg Magic – Low Self-Esteem ryushare uploaded keep2share

Kathia Nobili, Meg Magic – Low Self-Esteem

Amateur Teen Sex 2320 ryushare uploaded keep2share

Amateur Teen Sex 2320

Ariana Marie – Post Workout Sex ryushare uploaded keep2share

Ariana Marie – Post Workout Sex

Free Porn Videos Xxx Movies Pussy Porn 3704 ryushare uploaded keep2share

Free Porn Videos Xxx Movies Pussy Porn 3704

Teen porn movies 4620 ryushare uploaded keep2share

Teen porn movies 4620

Adult Hardcore XXX Sex Videos 5707 ryushare uploaded keep2share

Adult Hardcore XXX Sex Videos 5707

Hd quality – Teen sex video 5307 ryushare uploaded keep2share

Hd quality – Teen sex video 5307

Lucy Li & William Zeff – With Love ryushare uploaded keep2share

Lucy Li & William Zeff – With Love

sex xxxfantasy hd download 226694 ryushare uploaded keep2share

sex xxxfantasy hd download 226694

Xxx comsexxx 226198 ryushare uploaded keep2share

Xxx comsexxx 226198

Porno movies young teens lesbian 5426 ryushare uploaded keep2share

Porno movies young teens lesbian 5426

Porno young teens movies 2581 ryushare uploaded keep2share

Porno young teens movies 2581

Young legal porn clips 3020 ryushare uploaded keep2share

Young legal porn clips 3020

Two Boys & One Girl – X-Art ryushare uploaded keep2share

Two Boys & One Girl – X-Art

Ariana Marie – Babysitter ryushare uploaded keep2share

Ariana Marie – Babysitter

[RylskyArt.com] Welesa Wil – Grenarz ryushare uploaded keep2share

[RylskyArt.com] Welesa Wil – Grenarz

Young teens tube hot girls free porn video 2828 ryushare uploaded keep2share

Young teens tube hot girls free porn video 2828

PornstarPlatinum.com / JoslynJames.xxx] Joslyn James ryushare uploaded keep2share

PornstarPlatinum.com / JoslynJames.xxx] Joslyn James

HD Sex World Videos High Definition Free Porn 225951 ryushare uploaded keep2share

HD Sex World Videos High Definition Free Porn 225951

www hdsexy xxx 226508 ryushare uploaded keep2share

www hdsexy xxx 226508

HQ Sex Movies Download 225194 ryushare uploaded keep2share

HQ Sex Movies Download 225194

Good Teen Tube Sexy Young Naked Girls Movies 224941 ryushare uploaded keep2share

Good Teen Tube Sexy Young Naked Girls Movies 224941

Report broken links / Post a comment

You must be logged in to post a comment.



General\r\nComplete name : D:hd teens porn download free online[K Klixen Productions / clips4sale.com] Jessie Volt, Aysha Rouge (K Two Teasing Tongues 13) [2014 г., Blowjob].AB.(1).avi\r\nFormat : AVI\r\nFormat/Info : Audio Video Interleave\r\nFile size : 614 MiB\r\nDuration : 41mn 54s\r\nOverall bit rate : 2 047 Kbps\r\nWriting application : Lavf54.63.104\r\n\r\nVideo\r\nID : 0\r\nFormat : AVC\r\nFormat/Info : Advanced Video Codec\r\nFormat profile : Main@L3.1\r\nFormat settings, CABAC : Yes\r\nFormat settings, ReFrames : 1 frame\r\nCodec ID : H264\r\nDuration : 41mn 54s\r\nBit rate : 1 721 Kbps\r\nWidth : 1 280 pixels\r\nHeight : 720 pixels\r\nDisplay aspect ratio : 16:9\r\nFrame rate mode : Variable\r\nFrame rate : 25.000 fps\r\nColor space : YUV\r\nChroma subsampling : 4:2:0\r\nBit depth : 8 bits\r\nScan type : Progressive\r\nBits/(Pixel*Frame) : 0.075\r\nStream size : 514 MiB (84%)\r\nWriting library : x264 core 129\r\nEncoding settings : cabac=1 / ref=1 / deblock=1:0:0 / analyse=0x1:0x131 / me=dia / subme=2 / psy=1 / psy_rd=1.00:0.00 / mixed_ref=0 / me_range=16 / chroma_me=1 / trellis=0 / 8x8dct=0 / cqm=0 / deadzone=21,11 / fast_pskip=1 / chroma_qp_offset=0 / threads=2 / lookahead_threads=1 / sliced_threads=0 / nr=0 / decimate=1 / interlaced=0 / bluray_compat=0 / constrained_intra=0 / bframes=0 / weightp=2 / keyint=250 / keyint_min=25 / scenecut=40 / intra_refresh=0 / rc_lookahead=40 / rc=abr / mbtree=1 / bitrate=1721 / ratetol=1.0 / qcomp=0.60 / qpmin=10 / qpmax=51 / qpstep=4 / ip_ratio=1.41 / aq=1:1.00\r\n\r\nAudio\r\nID : 1\r\nFormat : MPEG Audio\r\nFormat version : Version 1\r\nFormat profile : Layer 3\r\nMode : Joint stereo\r\nMode extension : MS Stereo\r\nCodec ID : 55\r\nCodec ID/Hint : MP3\r\nDuration : 41mn 54s\r\nBit rate mode : Constant\r\nBit rate : 320 Kbps\r\nChannel(s) : 2 channels\r\nSampling rate : 48.0 KHz\r\nCompression mode : Lossy\r\nStream size : 95.9 MiB (16%)\r\nAlignment : Aligned on interleaves\r\nInterleave, duration : 24 ms (0.60 video frame)\r\nWriting library : LAME3.99.5\r\n\r\n