JimSlip – Tassia – Nympho in Chief

Jassie Gold - Take Your Tisme / all sexTeen porn movies 1779

Posted in HD Porn, Pornstar, Sex Movies, Teen | 12013 Views |


Rate this girl !!!




[JimSlip.com] Tassia – Nympho in Chief (18.08.2014 g) [All Sex, Hardcore, Old & Young]\r\n\r\npicpic\r\n\r\nVideo format: mp4\r\nDuration: 00:26:35\r\nVideo: AVC; 960×540 (16: 9); 2985 Kbps; 25 fps; 0,230 bpp\r\nAudio: English; AAC LC; 128 Kbps; VBR; 2 ch\r\n\r\nTassia_SD.mp4\r\n\r\n 



DOWNLOAD

Keep2share.cc - Uploaded.net - Openload.co - Rapidu.net


http://fileom.com/d5zqd3liywit/Ta.ss.ia_SD.mp4.html
http://k2s.cc/file/0b49e14035f34/Ta.ss.ia_SD.mp4
http://ul.to/ulei950o/Ta.ss.ia_SD.mp4


Premium here:
uploaded.net
keep2share.cc
rapidu.net.cc


Teens related to JimSlip – Tassia – Nympho in Chief


Teen Tits Tube, Young Girls Porn Videos 2547 ryushare uploaded keep2share

Teen Tits Tube, Young Girls Porn Videos 2547

21Naturals.com Beata Undine – Dreaming ryushare uploaded keep2share

21Naturals.com Beata Undine – Dreaming

Good Teen Tube Sexy Young Naked Girls Movies 2541 ryushare uploaded keep2share

Good Teen Tube Sexy Young Naked Girls Movies 2541

Nude Teens fucking hard 225614 ryushare uploaded keep2share

Nude Teens fucking hard 225614

Good Teen Tube Sexy Young Naked Girls Movies 2535 ryushare uploaded keep2share

Good Teen Tube Sexy Young Naked Girls Movies 2535

www xxx hot 18 hd videos com ryushare uploaded keep2share

www xxx hot 18 hd videos com

Nude Teens fucking hard 2531 ryushare uploaded keep2share

Nude Teens fucking hard 2531

sxy ccc xx 226377 ryushare uploaded keep2share

sxy ccc xx 226377

australia teen porn xxx ryushare uploaded keep2share

australia teen porn xxx

Hd young videos 3878 ryushare uploaded keep2share

Hd young videos 3878

Two Teasing Tongues 10 – B ryushare uploaded keep2share

Two Teasing Tongues 10 – B

High Definition Movies on HD 224782 ryushare uploaded keep2share

High Definition Movies on HD 224782

Teen Sex Porn Videos Free Nude Teens 224533 ryushare uploaded keep2share

Teen Sex Porn Videos Free Nude Teens 224533

wow girl outdor besd hd porn vedio dawunlod 2015 ryushare uploaded keep2share

wow girl outdor besd hd porn vedio dawunlod 2015

Teen porn movies 224116 ryushare uploaded keep2share

Teen porn movies 224116

Teen porn movies 1607 ryushare uploaded keep2share

Teen porn movies 1607

Young Sex Movies 5605 ryushare uploaded keep2share

Young Sex Movies 5605

wwwhd sax 99 com ryushare uploaded keep2share

wwwhd sax 99 com

High Definition Movies on HD 224800 ryushare uploaded keep2share

High Definition Movies on HD 224800

Wow porn tube movies 5353 ryushare uploaded keep2share

Wow porn tube movies 5353

www sexhdmovus com ryushare uploaded keep2share

www sexhdmovus com

Jada – A Manwhore For Me ryushare uploaded keep2share

Jada – A Manwhore For Me

Young legal porn clips 4029 ryushare uploaded keep2share

Young legal porn clips 4029

Amateur Teen Sex 225702 ryushare uploaded keep2share

Amateur Teen Sex 225702

Teen porn xxx 225802 ryushare uploaded keep2share

Teen porn xxx 225802

Good Teen Tube Sexy Young Naked Girls Movies 224639 ryushare uploaded keep2share

Good Teen Tube Sexy Young Naked Girls Movies 224639

teenslovehd video 226220 ryushare uploaded keep2share

teenslovehd video 226220

Hd quality – Teen sex video 1189 ryushare uploaded keep2share

Hd quality – Teen sex video 1189

Lily Love – Meditating Beauty ryushare uploaded keep2share

Lily Love – Meditating Beauty

Teen porn movies 1195 ryushare uploaded keep2share

Teen porn movies 1195

Fucking a RedHair Sexy teen amateur ryushare uploaded keep2share

Fucking a RedHair Sexy teen amateur

Good Teen Tube Sexy Young Naked Girls Movies 5521 ryushare uploaded keep2share

Good Teen Tube Sexy Young Naked Girls Movies 5521

antartika sex hd ryushare uploaded keep2share

antartika sex hd

Young Sex Movies 4563 ryushare uploaded keep2share

Young Sex Movies 4563

sexs 18 hd indir 226449 ryushare uploaded keep2share

sexs 18 hd indir 226449

Report broken links / Post a comment

You must be logged in to post a comment.



General\r\nComplete name : D:porn sex movies download amateur pornstars teens JimSlip - Tassia - Nympho in Chief _SD.mp4\r\nFormat : MPEG-4\r\nFormat profile : Base Media / Version 2\r\nCodec ID : mp42\r\nFile size : 593 MiB\r\nDuration : 26mn 35s\r\nOverall bit rate mode : Variable\r\nOverall bit rate : 3 117 Kbps\r\nEncoded date : UTC 2014-06-04 22:38:46\r\nTagged date : UTC 2014-06-04 22:38:46\r\nWriting library : Apple QuickTime\r\n\r\nVideo\r\nID : 1\r\nFormat : AVC\r\nFormat/Info : Advanced Video Codec\r\nFormat profile : Main@L3.1\r\nFormat settings, CABAC : No\r\nFormat settings, ReFrames : 3 frames\r\nCodec ID : avc1\r\nCodec ID/Info : Advanced Video Coding\r\nDuration : 26mn 35s\r\nSource duration : 26mn 35s\r\nBit rate mode : Variable\r\nBit rate : 2 857 Kbps\r\nMaximum bit rate : 3 000 Kbps\r\nWidth : 960 pixels\r\nHeight : 540 pixels\r\nDisplay aspect ratio : 16:9\r\nFrame rate mode : Constant\r\nFrame rate : 25.000 fps\r\nStandard : Component\r\nColor space : YUV\r\nChroma subsampling : 4:2:0\r\nBit depth : 8 bits\r\nScan type : Progressive\r\nBits/(Pixel*Frame) : 0.220\r\nStream size : 543 MiB (92%)\r\nSource stream size : 568 MiB (96%)\r\nLanguage : English\r\nEncoded date : UTC 2014-06-04 22:38:46\r\nTagged date : UTC 2014-06-04 22:38:46\r\nmdhd_Duration : 1595840\r\n\r\nAudio\r\nID : 2\r\nFormat : AAC\r\nFormat/Info : Advanced Audio Codec\r\nFormat profile : LC\r\nCodec ID : 40\r\nDuration : 26mn 35s\r\nBit rate mode : Variable\r\nBit rate : 128 Kbps\r\nMaximum bit rate : 136 Kbps\r\nChannel(s) : 2 channels\r\nChannel positions : Front: L R\r\nSampling rate : 44.1 KHz\r\nCompression mode : Lossy\r\nStream size : 24.4 MiB (4%)\r\nLanguage : English\r\nEncoded date : UTC 2014-06-04 22:38:46\r\nTagged date : UTC 2014-06-04 22:38:46\r\n\r\nOther #1\r\nID : 3\r\nType : Object description\r\nFormat : System Core\r\nCodec ID : 2\r\nDuration : 26mn 35s\r\nLanguage : English\r\nEncoded date : UTC 2014-06-04 22:38:46\r\nTagged date : UTC 2014-06-04 22:38:46\r\nmdhd_Duration : 1000\r\n\r\nOther #2\r\nID : 4\r\nType : Scene description\r\nFormat : System Core\r\nCodec ID : 2\r\nDuration : 26mn 35s\r\nLanguage : English\r\nEncoded date : UTC 2014-06-04 22:38:46\r\nTagged date : UTC 2014-06-04 22:38:46\r\nmdhd_Duration : 1000\r\n\r\n