Kaylee Haze – Wet Pussy Play

Riley Reid – Forget Me NotSabrina L – Sabrina Flirting With Her Personal Trainer

Posted in Amateur, HD Porn, Sex Movies, Teen | 13529 Views |


Rate this girl !!!


(43 raters, 152 scores, average: 3.54 out of 5, 70.7%)

cover\r\n\r\n1920x1080p / MP4 / 1.32 GB\r\n

[RealExGirlfriends.com] Kaylee Haze – Wet Pussy Play

\r\n \r\n\r\nSCREENSHOTS:\r\n\r\nscreens



DOWNLOAD

Keep2share.cc - Uploaded.net - Openload.co - Rapidu.net


http://k2s.cc/file/01f7535a60a0e/r3g.k4yl33.h4z3.w3t.pvssy.pl4y.16.09.14_1080.mp4
http://ul.to/6utqmy0n/r3g.k4yl33.h4z3.w3t.pvssy.pl4y.16.09.14_1080.mp4



Premium here:
uploaded.net
keep2share.cc
rapidu.net.cc

Incoming search terms:

  • teen pussy HD
  • hd teen pussy
  • pussy play hd
  • teen wet pussy hd
  • teens pussy hd
  • wetteenpussy
  • www HDteenpussy com


Teens related to Kaylee Haze – Wet Pussy Play


real virgin Teent pussy image Hd com ryushare uploaded keep2share

real virgin Teent pussy image Hd com

low quality of sex video 226074 ryushare uploaded keep2share

low quality of sex video 226074

High Definition Movies on HD 1766 ryushare uploaded keep2share

High Definition Movies on HD 1766

dowanload porn short hd ryushare uploaded keep2share

dowanload porn short hd

Lucy Li – Perky Teen Lucy Li Gets Lathered download in hd 226168 ryushare uploaded keep2share

Lucy Li – Perky Teen Lucy Li Gets Lathered download in hd 226168

non HD xxx movie ryushare uploaded keep2share

non HD xxx movie

Teen Sex Movies Young Porn Tube Vids 5659 ryushare uploaded keep2share

Teen Sex Movies Young Porn Tube Vids 5659

hd porn movi downlod 226138 ryushare uploaded keep2share

hd porn movi downlod 226138

Teens in Porno young porn videos and free teen sex 1763 ryushare uploaded keep2share

Teens in Porno young porn videos and free teen sex 1763

Alica – Quiet but deadly ryushare uploaded keep2share

Alica – Quiet but deadly

Good Teen Tube Sexy Young Naked Girls Movies 1543 ryushare uploaded keep2share

Good Teen Tube Sexy Young Naked Girls Movies 1543

Teen Sex Videos Tube Movies 1759 ryushare uploaded keep2share

Teen Sex Videos Tube Movies 1759

HD Teen Sex Tube 225351 ryushare uploaded keep2share

HD Teen Sex Tube 225351

Hd quality – Teen sex video 4204 ryushare uploaded keep2share

Hd quality – Teen sex video 4204

Young XXX Tube Videos 3931 ryushare uploaded keep2share

Young XXX Tube Videos 3931

Jessie Volt, Sierra Nevadah – Blonde Seduction ryushare uploaded keep2share

Jessie Volt, Sierra Nevadah – Blonde Seduction

Amarna  – PublicAgent ryushare uploaded keep2share

Amarna – PublicAgent

full 1280p xxx video 226633 ryushare uploaded keep2share

full 1280p xxx video 226633

Teen Sex Videos Tube Movies 224536 ryushare uploaded keep2share

Teen Sex Videos Tube Movies 224536

Just Clara ryushare uploaded keep2share

Just Clara

Remy’s Edging Orgasm Control ryushare uploaded keep2share

Remy’s Edging Orgasm Control

Kissme Girl – Aidra Fox & Sasha ryushare uploaded keep2share

Kissme Girl – Aidra Fox & Sasha

College Teen Sex 223710 ryushare uploaded keep2share

College Teen Sex 223710

Watch Teen Sex Videos HD 1595 ryushare uploaded keep2share

Watch Teen Sex Videos HD 1595

Hot Teen Sex HD videos 225101 ryushare uploaded keep2share

Hot Teen Sex HD videos 225101

Hot sex girls movies download 2609 ryushare uploaded keep2share

Hot sex girls movies download 2609

Hardcore Sex Hub 1315 ryushare uploaded keep2share

Hardcore Sex Hub 1315

xxx bf net 226291 ryushare uploaded keep2share

xxx bf net 226291

HD Teen Sex Tube 3572 ryushare uploaded keep2share

HD Teen Sex Tube 3572

Teen Sex Videos Tube Movies 1396 ryushare uploaded keep2share

Teen Sex Videos Tube Movies 1396

www HD fuck vido 226084 ryushare uploaded keep2share

www HD fuck vido 226084

Her Sweet Hand – Beatrice ryushare uploaded keep2share

Her Sweet Hand – Beatrice

Naughty Temptress – Capri Anderson ryushare uploaded keep2share

Naughty Temptress – Capri Anderson

Teenage Fuck Clips 4687 ryushare uploaded keep2share

Teenage Fuck Clips 4687

Porn party teen girls 224921 ryushare uploaded keep2share

Porn party teen girls 224921

Report broken links / Post a comment

You must be logged in to post a comment.



General\r\nComplete name : D:hd teens porn download free online[RealExGirlfriends.com] Kaylee Haze – Wet Pussy Play.16.09.14_1080.mp4\r\nFormat : MPEG-4\r\nFormat profile : Base Media\r\nCodec ID : isom\r\nFile size : 1.32 GiB\r\nDuration : 20mn 4s\r\nOverall bit rate mode : Variable\r\nOverall bit rate : 9 382 Kbps\r\nWriting application : Lavf55.44.100\r\n\r\nVideo\r\nID : 1\r\nFormat : AVC\r\nFormat/Info : Advanced Video Codec\r\nFormat profile : Baseline@L3.1\r\nFormat settings, CABAC : No\r\nFormat settings, ReFrames : 2 frames\r\nCodec ID : avc1\r\nCodec ID/Info : Advanced Video Coding\r\nDuration : 20mn 4s\r\nBit rate : 9 277 Kbps\r\nWidth : 1 920 pixels\r\nHeight : 1 080 pixels\r\nDisplay aspect ratio : 16:9\r\nFrame rate mode : Constant\r\nFrame rate : 23.976 fps\r\nColor space : YUV\r\nChroma subsampling : 4:2:0\r\nBit depth : 8 bits\r\nScan type : Progressive\r\nBits/(Pixel*Frame) : 0.187\r\nStream size : 1.30 GiB (99%)\r\nWriting library : x264 core 142 r2431 a5831aa\r\nEncoding settings : cabac=0 / ref=2 / deblock=1:0:0 / analyse=0x1:0x111 / me=hex / subme=6 / psy=1 / psy_rd=1.00:0.00 / mixed_ref=1 / me_range=16 / chroma_me=1 / trellis=1 / 8x8dct=0 / cqm=0 / deadzone=21,11 / fast_pskip=1 / chroma_qp_offset=-2 / threads=2 / lookahead_threads=1 / sliced_threads=0 / nr=0 / decimate=1 / interlaced=0 / bluray_compat=0 / constrained_intra=0 / bframes=0 / weightp=0 / keyint=250 / keyint_min=23 / scenecut=40 / intra_refresh=0 / rc_lookahead=30 / rc=crf / mbtree=1 / crf=18.0 / qcomp=0.60 / qpmin=0 / qpmax=69 / qpstep=4 / ip_ratio=1.40 / aq=1:1.00\r\nLanguage : English\r\n\r\nAudio\r\nID : 2\r\nFormat : AAC\r\nFormat/Info : Advanced Audio Codec\r\nFormat profile : LC\r\nCodec ID : 40\r\nDuration : 20mn 4s\r\nBit rate mode : Variable\r\nBit rate : 99.1 Kbps\r\nMaximum bit rate : 128 Kbps\r\nChannel(s) : 2 channels\r\nChannel positions : Front: L R\r\nSampling rate : 48.0 KHz\r\nCompression mode : Lossy\r\nStream size : 14.2 MiB (1%)\r\nLanguage : English\r\n\r\n