Kennedy Leigh & Thomas – Date Night

Rocco Siffred - Kiara Lord - POVMalena Morgan - I Don't Sing In The Shower

Posted in Amateur, HD Porn, Sex Movies | 5190 Views |


Rate this girl !!!


(9 raters, 18 scores, average: 2.00 out of 5, 40%)

pic

 

http://pic-mir.ru/allimage/0/0/7/7/7/77723.jpeg

[AmateurAllure.com] Kennedy Leigh & Thomas – Date Night (14.02.2014 г.) [All Sex, Hardcore, Teens, Swallowing, Amateur Girls] [720p]

Video format: mov
Duration: 00:11:12
Video: AVC; 1280×720 (16: 9); 4281 Kbps; 29,970 fps; 0,155 bpp
Audio: English; AAC LC; 238 Kbps; CBR; 2 ch



DOWNLOAD

Keep2share.cc - Uploaded.net - Openload.co - Rapidu.net



Premium here:
uploaded.net
keep2share.cc
rapidu.net.cc

Incoming search terms:

  • kennedy leigh amateur allure porn
  • Kennedy Leigh Thomas Date Night


Teens related to Kennedy Leigh & Thomas – Date Night


HD porn uploaded 3036 ryushare uploaded keep2share

HD porn uploaded 3036

8 Teen XXX – Teen Sex 1972 ryushare uploaded keep2share

8 Teen XXX – Teen Sex 1972

sex videos in mkv free download 226464 ryushare uploaded keep2share

sex videos in mkv free download 226464

Hot Teen Sex 225853 ryushare uploaded keep2share

Hot Teen Sex 225853

Teen Sex Porn Videos Free Nude Teens 4307 ryushare uploaded keep2share

Teen Sex Porn Videos Free Nude Teens 4307

Great Girlish Enthusiasm ryushare uploaded keep2share

Great Girlish Enthusiasm

Adriana – Slut in a Tu Tu ryushare uploaded keep2share

Adriana – Slut in a Tu Tu

Wow porn tube movies 224906 ryushare uploaded keep2share

Wow porn tube movies 224906

www sexvideo hd1280 226502 ryushare uploaded keep2share

www sexvideo hd1280 226502

Young Sex Movies 4563 ryushare uploaded keep2share

Young Sex Movies 4563

Young Sex Movies 1507 ryushare uploaded keep2share

Young Sex Movies 1507

Free High Quality Sex Movies 4635 ryushare uploaded keep2share

Free High Quality Sex Movies 4635

Barezzers sexhd com 226100 ryushare uploaded keep2share

Barezzers sexhd com 226100

Sexy hd world com 226166 ryushare uploaded keep2share

Sexy hd world com 226166

Wow girls downloads hd 225203 ryushare uploaded keep2share

Wow girls downloads hd 225203

Teen Porn XXX Tube 224141 ryushare uploaded keep2share

Teen Porn XXX Tube 224141

Nubiles.net Olivia Devine – Outdoor Orgasm ryushare uploaded keep2share

Nubiles.net Olivia Devine – Outdoor Orgasm

Teen Sex Porn Videos Free Nude Teens 4683 ryushare uploaded keep2share

Teen Sex Porn Videos Free Nude Teens 4683

Teen Sex Movies 2192 ryushare uploaded keep2share

Teen Sex Movies 2192

world hd sex clips 226188 ryushare uploaded keep2share

world hd sex clips 226188

Gianna – Real Blonde Love Doll Screws Her BF ryushare uploaded keep2share

Gianna – Real Blonde Love Doll Screws Her BF

Linda S – YES Girl ryushare uploaded keep2share

Linda S – YES Girl

Porn HD Sex HD Teen Sex 4153 ryushare uploaded keep2share

Porn HD Sex HD Teen Sex 4153

yunga grls porn sex com ryushare uploaded keep2share

yunga grls porn sex com

Porn teen hd downloads 224873 ryushare uploaded keep2share

Porn teen hd downloads 224873

Porn party teen girls 224803 ryushare uploaded keep2share

Porn party teen girls 224803

Teen porn xxx 224836 ryushare uploaded keep2share

Teen porn xxx 224836

Hot Teen Sex HD videos 225223 ryushare uploaded keep2share

Hot Teen Sex HD videos 225223

Good Teen Tube Sexy Young Naked Girls Movies 225497 ryushare uploaded keep2share

Good Teen Tube Sexy Young Naked Girls Movies 225497

Uploaded net porn XXX 225290 ryushare uploaded keep2share

Uploaded net porn XXX 225290

World Boyfriends Xxx Videos full HD ryushare uploaded keep2share

World Boyfriends Xxx Videos full HD

HD sex movies downloads 2841 ryushare uploaded keep2share

HD sex movies downloads 2841

Amateur Teen Sex 2320 ryushare uploaded keep2share

Amateur Teen Sex 2320

Brunette Shelia Gets a Big Load Of Cum ryushare uploaded keep2share

Brunette Shelia Gets a Big Load Of Cum

Teen porn xxx 224950 ryushare uploaded keep2share

Teen porn xxx 224950

Report broken links / Post a comment

You must be logged in to post a comment.



General
Complete name : D:Torrentsaa.14.02.14.kennedy.3.mov
Format : MPEG-4
Format profile : QuickTime
Codec ID : qt
File size : 378 MiB
Duration : 11mn 12s
Overall bit rate : 4 715 Kbps
Movie name : Valentines Day Update
Description : This video is about Valentines Day Update
Encoded date : UTC 2014-02-14 10:14:57
Tagged date : UTC 2014-02-14 10:15:00
Writing library : Apple QuickTime
com.apple.quicktime.keywords : New Event 2-3-14
com.apple.quicktime.author : Paul Pilcher
com.apple.quicktime.title : Valentines Day Update
Media/UUID : 4FBF4BEE-BC9B-43B9-8973-556F509EE3F7

Video
ID : 1
Format : AVC
Format/Info : Advanced Video Codec
Format profile : High@L3.1
Format settings, CABAC : No
Format settings, ReFrames : 2 frames
Codec ID : avc1
Codec ID/Info : Advanced Video Coding
Duration : 11mn 12s
Bit rate : 4 471 Kbps
Width : 1 280 pixels
Height : 720 pixels
Display aspect ratio : 16:9
Frame rate mode : Constant
Frame rate : 29.970 fps
Color space : YUV
Chroma subsampling : 4:2:0
Bit depth : 8 bits
Scan type : Progressive
Bits/(Pixel*Frame) : 0.162
Stream size : 358 MiB (95%)
Language : English
Encoded date : UTC 2014-02-14 10:14:56
Tagged date : UTC 2014-02-14 10:15:00
Color primaries : BT.709
Transfer characteristics : BT.709
Matrix coefficients : BT.709

Audio
ID : 3
Format : AAC
Format/Info : Advanced Audio Codec
Format profile : LC
Codec ID : 40
Duration : 11mn 12s
Source duration : 11mn 12s
Bit rate mode : Constant
Bit rate : 238 Kbps
Nominal bit rate : 256 Kbps
Channel(s) : 2 channels
Channel positions : Front: L R
Sampling rate : 44.1 KHz
Compression mode : Lossy
Stream size : 19.1 MiB (5%)
Source stream size : 19.1 MiB (5%)
Language : English
Encoded date : UTC 2014-02-14 10:14:57
Tagged date : UTC 2014-02-14 10:15:00

Other
ID : 2
Type : Time code
Format : QuickTime TC
Duration : 11mn 12s
Time code of first frame : 00:00:00:00
Time code settings : Striped
Language : English
Encoded date : UTC 2014-02-14 10:14:57
Tagged date : UTC 2014-02-14 10:15:00
Bit rate mode : CBR