Kiara Lord – Rock my world

Maddy O’Reilly – Heat waveKavol Lilien

Posted in HD Porn, Pornstar, Sex Movies, Teen | 6837 Views |


Rate this girl !!!


(9 raters, 27 scores, average: 3.00 out of 5, 60%)

[Babes.com] Kiara Lord – Rock my world

cover

1920x1080p / MP4 / 1.64 GB

SCREENSHOTS:

screens



DOWNLOAD

Keep2share.cc - Uploaded.net - Openload.co - Rapidu.net



Premium here:
uploaded.net
keep2share.cc
rapidu.net.cc

Incoming search terms:

  • h q comhd


Teens related to Kiara Lord – Rock my world


Gianna – Real Blonde Love Doll Screws Her BF ryushare uploaded keep2share

Gianna – Real Blonde Love Doll Screws Her BF

College Teen Sex 3556 ryushare uploaded keep2share

College Teen Sex 3556

The best Teen sex 223922 ryushare uploaded keep2share

The best Teen sex 223922

SexArt.com Dominica Phoenix, Katy Rose, Lexie Dona ryushare uploaded keep2share

SexArt.com Dominica Phoenix, Katy Rose, Lexie Dona

www fast taim xxx HDCom 226740 ryushare uploaded keep2share

www fast taim xxx HDCom 226740

Porno movies young teens lesbian 224607 ryushare uploaded keep2share

Porno movies young teens lesbian 224607

Aiko Mai, Angellina – Sweet Like Candy ryushare uploaded keep2share

Aiko Mai, Angellina – Sweet Like Candy

HD Teen Sex Tube 224831 ryushare uploaded keep2share

HD Teen Sex Tube 224831

Fresh Teen Videos 4217 ryushare uploaded keep2share

Fresh Teen Videos 4217

x x x video mb4hd 226258 ryushare uploaded keep2share

x x x video mb4hd 226258

sex xxx con 226363 ryushare uploaded keep2share

sex xxx con 226363

Porn teen hd downloads 225513 ryushare uploaded keep2share

Porn teen hd downloads 225513

Free Porn Videos Xxx Movies Pussy Porn 5324 ryushare uploaded keep2share

Free Porn Videos Xxx Movies Pussy Porn 5324

Hot download sex girls movies 225718 ryushare uploaded keep2share

Hot download sex girls movies 225718

HQ Sex Movies Download 5339 ryushare uploaded keep2share

HQ Sex Movies Download 5339

Teen acrobat sex ryushare uploaded keep2share

Teen acrobat sex

HD Porn Video 224842 ryushare uploaded keep2share

HD Porn Video 224842

Watch Teen Sex Videos HD 3515 ryushare uploaded keep2share

Watch Teen Sex Videos HD 3515

Young Virgin Pussy Teen Fuck Tube 5513 ryushare uploaded keep2share

Young Virgin Pussy Teen Fuck Tube 5513

www xxx hot 99 com 226355 ryushare uploaded keep2share

www xxx hot 99 com 226355

Hardcore Sex Hub 1355 ryushare uploaded keep2share

Hardcore Sex Hub 1355

HD Sex World Videos High Definition Free Porn 2998 ryushare uploaded keep2share

HD Sex World Videos High Definition Free Porn 2998

Porno movies young teens lesbian 225176 ryushare uploaded keep2share

Porno movies young teens lesbian 225176

HQ Sex Movies Download 1982 ryushare uploaded keep2share

HQ Sex Movies Download 1982

Skinny brunette ryushare uploaded keep2share

Skinny brunette

young virgin sex mp4 ryushare uploaded keep2share

young virgin sex mp4

Young Sex Movies 1507 ryushare uploaded keep2share

Young Sex Movies 1507

www 8 ponr hb mp4 vibeo 226770 ryushare uploaded keep2share

www 8 ponr hb mp4 vibeo 226770

Wow Porn Movies download) 5319 ryushare uploaded keep2share

Wow Porn Movies download) 5319

descargar cindy_96 226727 ryushare uploaded keep2share

descargar cindy_96 226727

girlboy xxxwalpaper 226160 ryushare uploaded keep2share

girlboy xxxwalpaper 226160

Teenies Videos – Teen Porn, Teen Sex, XXX Free Videos 1828 ryushare uploaded keep2share

Teenies Videos – Teen Porn, Teen Sex, XXX Free Videos 1828

Hd quality – Teen sex video 223909 ryushare uploaded keep2share

Hd quality – Teen sex video 223909

Young Virgin Pussy Teen Fuck Tube 224676 ryushare uploaded keep2share

Young Virgin Pussy Teen Fuck Tube 224676

Xxx x uploded haigh quality photos 226705 ryushare uploaded keep2share

Xxx x uploded haigh quality photos 226705

Report broken links / Post a comment

You must be logged in to post a comment.



General
Complete name : D:[Babes.com] Kiara Lord – Rock my world.mp4
Format : MPEG-4
Format profile : Base Media
Codec ID : isom
File size : 1.64 GiB
Duration : 36mn 50s
Overall bit rate : 6 384 Kbps
Writing application : Lavf55.33.100

Video
ID : 1
Format : AVC
Format/Info : Advanced Video Codec
Format profile : High@L4.1
Format settings, CABAC : Yes
Format settings, ReFrames : 5 frames
Codec ID : avc1
Codec ID/Info : Advanced Video Coding
Duration : 36mn 50s
Bit rate : 6 000 Kbps
Width : 1 920 pixels
Height : 1 080 pixels
Display aspect ratio : 16:9
Frame rate mode : Constant
Frame rate : 23.976 fps
Color space : YUV
Chroma subsampling : 4:2:0
Bit depth : 8 bits
Scan type : Progressive
Bits/(Pixel*Frame) : 0.121
Stream size : 1.54 GiB (94%)
Writing library : x264 core 142 r2389 956c8d8
Encoding settings : cabac=1 / ref=5 / deblock=1:0:0 / analyse=0x3:0x113 / me=umh / subme=8 / psy=1 / psy_rd=1.00:0.00 / mixed_ref=1 / me_range=16 / chroma_me=1 / trellis=1 / 8x8dct=1 / cqm=0 / deadzone=21,11 / fast_pskip=1 / chroma_qp_offset=-2 / threads=6 / lookahead_threads=1 / sliced_threads=0 / nr=0 / decimate=1 / interlaced=0 / bluray_compat=0 / constrained_intra=0 / bframes=3 / b_pyramid=2 / b_adapt=2 / b_bias=0 / direct=3 / weightb=1 / open_gop=0 / weightp=2 / keyint=60 / keyint_min=6 / scenecut=40 / intra_refresh=0 / rc_lookahead=50 / rc=abr / mbtree=1 / bitrate=6000 / ratetol=1.0 / qcomp=0.60 / qpmin=0 / qpmax=69 / qpstep=4 / ip_ratio=1.40 / aq=1:1.00
Tagged date : UTC 2014-08-09 04:06:09

Audio
ID : 2
Format : AAC
Format/Info : Advanced Audio Codec
Format profile : LC
Codec ID : 40
Duration : 36mn 50s
Duration_LastFrame : -9ms
Bit rate mode : Constant
Bit rate : 128 Kbps
Channel(s) : 2 channels
Channel positions : Front: L R
Sampling rate : 48.0 KHz
Compression mode : Lossy
Stream size : 33.7 MiB (2%)
Tagged date : UTC 2014-08-09 04:06:09

Other #1
ID : 65536
Type : Hint
Format : RTP
Codec ID : rtp
Duration : 36mn 50s
Encoded date : UTC 2014-08-09 04:03:13
Tagged date : UTC 2014-08-09 04:06:09

Other #2
ID : 65537
Type : Hint
Format : RTP
Codec ID : rtp
Duration : 36mn 50s
Encoded date : UTC 2014-08-09 04:05:23
Tagged date : UTC 2014-08-09 04:06:09
Bit rate mode : VBR