Kiara Lord, Vanda Lust – Walk on the wild side

Aiko Mai, Angellina – Sweet Like CandyIvy & Uma Zen – Two Girls

Posted in HD Porn, Pornstar, Sex Movies, Teen, Threesome | 8745 Views |


Rate this girl !!!


(18 raters, 68 scores, average: 3.78 out of 5, 75.56%)

cover

1920x1080p / MP4 / 1.79 GB

[Babes.com] Kiara Lord, Vanda Lust – Walk on the wild side

SCREENSHOTS:

screens



DOWNLOAD

Keep2share.cc - Uploaded.net - Openload.co - Rapidu.net



Premium here:
uploaded.net
keep2share.cc
rapidu.net.cc

Incoming search terms:

  • Walk on the Wild Side online stream from babes com
  • kiara lord vanda lust


Teens related to Kiara Lord, Vanda Lust – Walk on the wild side


Hot download sex girls movies 224915 ryushare uploaded keep2share

Hot download sex girls movies 224915

xxx move hb bo 226572 ryushare uploaded keep2share

xxx move hb bo 226572

teenslovehd video 226220 ryushare uploaded keep2share

teenslovehd video 226220

Girls do porn in HD 225372 ryushare uploaded keep2share

Girls do porn in HD 225372

Tube Young Sex 1390 ryushare uploaded keep2share

Tube Young Sex 1390

K Craving Lips 4 – CLIP A ryushare uploaded keep2share

K Craving Lips 4 – CLIP A

Small girls and boys porn 4304 ryushare uploaded keep2share

Small girls and boys porn 4304

Young xxx 224931 ryushare uploaded keep2share

Young xxx 224931

Hd teen party porn pics 226613 ryushare uploaded keep2share

Hd teen party porn pics 226613

The best Teen sex 225173 ryushare uploaded keep2share

The best Teen sex 225173

zazzers com Full HD ryushare uploaded keep2share

zazzers com Full HD

www xxx utbe com ryushare uploaded keep2share

www xxx utbe com

Sex Teens porn movies 4663 ryushare uploaded keep2share

Sex Teens porn movies 4663

www xvedeo comhd ryushare uploaded keep2share

www xvedeo comhd

HD Sex World Videos High Definition Free Porn 225387 ryushare uploaded keep2share

HD Sex World Videos High Definition Free Porn 225387

Watch Teen Sex Videos HD 225144 ryushare uploaded keep2share

Watch Teen Sex Videos HD 225144

xxxvideo s HD com 226265 ryushare uploaded keep2share

xxxvideo s HD com 226265

teensex mp4 hd download 226542 ryushare uploaded keep2share

teensex mp4 hd download 226542

Chelsy Sun & Thomas Lee – Play With Me ryushare uploaded keep2share

Chelsy Sun & Thomas Lee – Play With Me

Adult Hardcore XXX Sex Videos 4965 ryushare uploaded keep2share

Adult Hardcore XXX Sex Videos 4965

HD teen sex tube 4210 ryushare uploaded keep2share

HD teen sex tube 4210

The best Teen sex 223922 ryushare uploaded keep2share

The best Teen sex 223922

xxx sex h d 16 yars videos free downlod 226333 ryushare uploaded keep2share

xxx sex h d 16 yars videos free downlod 226333

TrickyMasseur.com Raquel ryushare uploaded keep2share

TrickyMasseur.com Raquel

xxx movie hd colle 226176 ryushare uploaded keep2share

xxx movie hd colle 226176

Lola Taylor – Hardcore ryushare uploaded keep2share

Lola Taylor – Hardcore

Hot Teen Sex 3611 ryushare uploaded keep2share

Hot Teen Sex 3611

Linda S – Making Up For Lost Time ryushare uploaded keep2share

Linda S – Making Up For Lost Time

XXX/H/XX/ ryushare uploaded keep2share

XXX/H/XX/

HD Sex World Videos High Definition Free Porn 1554 ryushare uploaded keep2share

HD Sex World Videos High Definition Free Porn 1554

Teenies Videos – Teen Porn, Teen Sex, XXX Free Videos 5072 ryushare uploaded keep2share

Teenies Videos – Teen Porn, Teen Sex, XXX Free Videos 5072

Argentina loves showing off her nice big boobs ryushare uploaded keep2share

Argentina loves showing off her nice big boobs

Connie – More Than I Could Wish Forpic ryushare uploaded keep2share

Connie – More Than I Could Wish Forpic

Kiki – Panties Free Day ryushare uploaded keep2share

Kiki – Panties Free Day

Porn teen hd downloads 224010 ryushare uploaded keep2share

Porn teen hd downloads 224010

Report broken links / Post a comment

You must be logged in to post a comment.



General
Complete name : D:hd teens porn download free online[Babes.com] Kiara Lord, Vanda Lust – Walk on the wild side.mp4
Format : MPEG-4
Format profile : Base Media
Codec ID : isom
File size : 1.79 GiB
Duration : 40mn 29s
Overall bit rate : 6 337 Kbps
Writing application : Lavf55.33.100

Video
ID : 1
Format : AVC
Format/Info : Advanced Video Codec
Format profile : High@L4.1
Format settings, CABAC : Yes
Format settings, ReFrames : 5 frames
Codec ID : avc1
Codec ID/Info : Advanced Video Coding
Duration : 40mn 29s
Bit rate : 6 000 Kbps
Width : 1 920 pixels
Height : 1 080 pixels
Display aspect ratio : 16:9
Frame rate mode : Constant
Frame rate : 23.976 fps
Color space : YUV
Chroma subsampling : 4:2:0
Bit depth : 8 bits
Scan type : Progressive
Bits/(Pixel*Frame) : 0.121
Stream size : 1.68 GiB (94%)
Writing library : x264 core 142 r2389 956c8d8
Encoding settings : cabac=1 / ref=5 / deblock=1:0:0 / analyse=0x3:0x113 / me=umh / subme=8 / psy=1 / psy_rd=1.00:0.00 / mixed_ref=1 / me_range=16 / chroma_me=1 / trellis=1 / 8x8dct=1 / cqm=0 / deadzone=21,11 / fast_pskip=1 / chroma_qp_offset=-2 / threads=6 / lookahead_threads=1 / sliced_threads=0 / nr=0 / decimate=1 / interlaced=0 / bluray_compat=0 / constrained_intra=0 / bframes=3 / b_pyramid=2 / b_adapt=2 / b_bias=0 / direct=3 / weightb=1 / open_gop=0 / weightp=2 / keyint=60 / keyint_min=6 / scenecut=40 / intra_refresh=0 / rc_lookahead=50 / rc=abr / mbtree=1 / bitrate=6000 / ratetol=1.0 / qcomp=0.60 / qpmin=0 / qpmax=69 / qpstep=4 / ip_ratio=1.40 / aq=1:1.00
Tagged date : UTC 2014-09-19 07:34:16

Audio
ID : 2
Format : AAC
Format/Info : Advanced Audio Codec
Format profile : LC
Codec ID : 40
Duration : 40mn 29s
Duration_LastFrame : -9ms
Bit rate mode : Constant
Bit rate : 128 Kbps
Channel(s) : 2 channels
Channel positions : Front: L R
Sampling rate : 48.0 KHz
Compression mode : Lossy
Stream size : 37.1 MiB (2%)
Tagged date : UTC 2014-09-19 07:34:16

Other #1
ID : 65536
Type : Hint
Format : RTP
Codec ID : rtp
Duration : 40mn 29s
Encoded date : UTC 2014-09-19 07:32:29
Tagged date : UTC 2014-09-19 07:34:16

Other #2
ID : 65537
Type : Hint
Format : RTP
Codec ID : rtp
Duration : 40mn 29s
Encoded date : UTC 2014-09-19 07:33:50
Tagged date : UTC 2014-09-19 07:34:16
Bit rate mode : VBR