Nicole – Summertime sex hookup

Uliya – Special surprise for a sex dateJ. Joanna – I’m Eve. Want An Apple?

Posted in Amateur, HD Porn, Sex Movies, Teen | 6150 Views |


Rate this girl !!!


(11 raters, 49 scores, average: 4.46 out of 5, 89.09%)

[CasualTeenSex.com] Nicole – Summertime sex hookup

cover

1920x1080p / MP4 / 1.07 GB

SCREENSHOTS:

screens



DOWNLOAD

Keep2share.cc - Uploaded.net - Openload.co - Rapidu.net



Premium here:
uploaded.net
keep2share.cc
rapidu.net.cc


Teens related to Nicole – Summertime sex hookup


download hot pussy xxx HD video ryushare uploaded keep2share

download hot pussy xxx HD video

www sex videosdowanload com 226082 ryushare uploaded keep2share

www sex videosdowanload com 226082

Tinny young pornstar fucked for all holes ryushare uploaded keep2share

Tinny young pornstar fucked for all holes

Teens fucked doggy style ryushare uploaded keep2share

Teens fucked doggy style

Nude Teens fucking hard 5262 ryushare uploaded keep2share

Nude Teens fucking hard 5262

Two Teasing Tongues 9 ryushare uploaded keep2share

Two Teasing Tongues 9

Sweet Teen Porn – Young Porn Videos 224239 ryushare uploaded keep2share

Sweet Teen Porn – Young Porn Videos 224239

Katerina Kay – No One Will See It Right? ryushare uploaded keep2share

Katerina Kay – No One Will See It Right?

xvideohqdownlod 226407 ryushare uploaded keep2share

xvideohqdownlod 226407

Teen porn xxx 225802 ryushare uploaded keep2share

Teen porn xxx 225802

Teen porn xxx 5502 ryushare uploaded keep2share

Teen porn xxx 5502

Free High Quality Sex Movies 5278 ryushare uploaded keep2share

Free High Quality Sex Movies 5278

Wow Porn Movies download) 224417 ryushare uploaded keep2share

Wow Porn Movies download) 224417

xxx skymovi com ryushare uploaded keep2share

xxx skymovi com

Nude Teens fucking hard 1979 ryushare uploaded keep2share

Nude Teens fucking hard 1979

Teen porn movies 224809 ryushare uploaded keep2share

Teen porn movies 224809

Young Sex Movies 225932 ryushare uploaded keep2share

Young Sex Movies 225932

HD Porn Videos 5360 ryushare uploaded keep2share

HD Porn Videos 5360

jd www xxxhd com ryushare uploaded keep2share

jd www xxxhd com

xxx movies hd for mobile com ryushare uploaded keep2share

xxx movies hd for mobile com

foll hd xxx 2016bobes mailk 226591 ryushare uploaded keep2share

foll hd xxx 2016bobes mailk 226591

Beautiful model ryushare uploaded keep2share

Beautiful model

[LegalPorno.com] Rebecca Volpetti (Rebecca Volpetti goes hardcore: 3on1 anal & DP SZ1298) [2016 г., Gonzo, Gangbang, Anal, DP, Swallow, 720p] Страницы:  1 ryushare uploaded keep2share

[LegalPorno.com] Rebecca Volpetti (Rebecca Volpetti goes hardcore: 3on1 anal & DP SZ1298) [2016 г., Gonzo, Gangbang, Anal, DP, Swallow, 720p] Страницы: 1

First time Sexual Films 18 sex xxx 224947 ryushare uploaded keep2share

First time Sexual Films 18 sex xxx 224947

Watch Teen Sex Videos HD 4989 ryushare uploaded keep2share

Watch Teen Sex Videos HD 4989

www8ten sex xxx com ryushare uploaded keep2share

www8ten sex xxx com

free porn hot movies downld in hd avi ryushare uploaded keep2share

free porn hot movies downld in hd avi

Teen Sex Movies 1772 ryushare uploaded keep2share

Teen Sex Movies 1772

Young Sex Movies 2635 ryushare uploaded keep2share

Young Sex Movies 2635

Young Virgin Pussy Teen Fuck Tube 4403 ryushare uploaded keep2share

Young Virgin Pussy Teen Fuck Tube 4403

www HD xxxvideos downlaod com ryushare uploaded keep2share

www HD xxxvideos downlaod com

Teen Sex Videos Tube Movies 225875 ryushare uploaded keep2share

Teen Sex Videos Tube Movies 225875

HQ Sex Movies Download 4226 ryushare uploaded keep2share

HQ Sex Movies Download 4226

Teen Sex Videos Tube Movies 1759 ryushare uploaded keep2share

Teen Sex Videos Tube Movies 1759

Hot Teen Sex 1274 ryushare uploaded keep2share

Hot Teen Sex 1274

Report broken links / Post a comment

You must be logged in to post a comment.



General
Complete name : D:[CasualTeenSex.com] Nicole – Summertime sex hookup.mp4
Format : MPEG-4
Format profile : Base Media
Codec ID : isom
File size : 1.07 GiB
Duration : 25mn 28s
Overall bit rate mode : Variable
Overall bit rate : 5 988 Kbps
Writing application : Lavf54.22.101

Video
ID : 1
Format : AVC
Format/Info : Advanced Video Codec
Format profile : High@L4.0
Format settings, CABAC : Yes
Format settings, ReFrames : 4 frames
Codec ID : avc1
Codec ID/Info : Advanced Video Coding
Duration : 25mn 28s
Bit rate : 5 865 Kbps
Width : 1 920 pixels
Height : 1 080 pixels
Display aspect ratio : 16:9
Frame rate mode : Constant
Frame rate : 25.000 fps
Color space : YUV
Chroma subsampling : 4:2:0
Bit depth : 8 bits
Scan type : Progressive
Bits/(Pixel*Frame) : 0.113
Stream size : 1.04 GiB (98%)
Writing library : x264 core 125
Encoding settings : cabac=1 / ref=3 / deblock=1:0:0 / analyse=0x3:0x113 / me=hex / subme=7 / psy=1 / psy_rd=1.00:0.00 / mixed_ref=1 / me_range=16 / chroma_me=1 / trellis=0 / 8x8dct=1 / cqm=0 / deadzone=21,11 / fast_pskip=1 / chroma_qp_offset=-2 / threads=16 / lookahead_threads=2 / sliced_threads=0 / nr=0 / decimate=1 / interlaced=0 / bluray_compat=0 / constrained_intra=0 / bframes=8 / b_pyramid=2 / b_adapt=1 / b_bias=0 / direct=1 / weightb=1 / open_gop=0 / weightp=2 / keyint=50 / keyint_min=5 / scenecut=40 / intra_refresh=0 / rc_lookahead=40 / rc=crf / mbtree=1 / crf=20.0 / qcomp=0.60 / qpmin=0 / qpmax=69 / qpstep=4 / ip_ratio=1.40 / aq=1:1.00
Language : Russian

Audio
ID : 2
Format : AAC
Format/Info : Advanced Audio Codec
Format profile : LC
Codec ID : 40
Duration : 25mn 28s
Bit rate mode : Variable
Bit rate : 116 Kbps
Maximum bit rate : 128 Kbps
Channel(s) : 2 channels
Channel positions : Front: L R
Sampling rate : 44.1 KHz
Compression mode : Lossy
Stream size : 21.2 MiB (2%)
Language : Russian