Nikita – Craving For Sex. R E D

Edge play with Anabelle and AshlynnAiko Mai, Angellina – Sweet Like Candy

Posted in HD Porn, Pornstar, Sex Movies, Teen | 8930 Views |


Rate this girl !!!


(24 raters, 92 scores, average: 3.83 out of 5, 76.67%)

cover

1920x1080p / MP4 / 679.18 MB

[WowPorn.com] Nikita – Craving For Sex. R E D

SCREENSHOTS:

screens



DOWNLOAD

Keep2share.cc - Uploaded.net - Openload.co - Rapidu.net



Premium here:
uploaded.net
keep2share.cc
rapidu.net.cc

Incoming search terms:

  • Nikita- Craving for Sex Full All HD
  • wowporn nikita porn tube
  • سكس شفع


Teens related to Nikita – Craving For Sex. R E D


Dusya – Crazy Adult Massage ryushare uploaded keep2share

Dusya – Crazy Adult Massage

bf 1080p xxxx sex xxx hd bf 226698 ryushare uploaded keep2share

bf 1080p xxxx sex xxx hd bf 226698

www8ten sex xxx com ryushare uploaded keep2share

www8ten sex xxx com

tube8hd video ryushare uploaded keep2share

tube8hd video

Porn teen hd downloads 224748 ryushare uploaded keep2share

Porn teen hd downloads 224748

HQ Sex Movies Download 3507 ryushare uploaded keep2share

HQ Sex Movies Download 3507

TeensAnalyzed – Nanette – Taking You Closer To Anal [FullHD 1080p] ryushare uploaded keep2share

TeensAnalyzed – Nanette – Taking You Closer To Anal [FullHD 1080p]

The best Teen sex 1220 ryushare uploaded keep2share

The best Teen sex 1220

Sex with my blonde ex girlfriend ryushare uploaded keep2share

Sex with my blonde ex girlfriend

Brunette bonk ryushare uploaded keep2share

Brunette bonk

Adult Hardcore XXX Sex Videos 3795 ryushare uploaded keep2share

Adult Hardcore XXX Sex Videos 3795

Wow porn hd downloads 225065 ryushare uploaded keep2share

Wow porn hd downloads 225065

Big tits Big Ass Sex with model ryushare uploaded keep2share

Big tits Big Ass Sex with model

HD Porn Teen Sex Videos 4693 ryushare uploaded keep2share

HD Porn Teen Sex Videos 4693

Young XXX Tube Videos 3230 ryushare uploaded keep2share

Young XXX Tube Videos 3230

waltz autumn sexart ryushare uploaded keep2share

waltz autumn sexart

xxxsxevid collega com ryushare uploaded keep2share

xxxsxevid collega com

Free High Quality Sex Movies 5482 ryushare uploaded keep2share

Free High Quality Sex Movies 5482

Hd young videos 2232 ryushare uploaded keep2share

Hd young videos 2232

Hot Teen Sex HD videos 224108 ryushare uploaded keep2share

Hot Teen Sex HD videos 224108

HD Teens Sex Tube Videos XxX 225160 ryushare uploaded keep2share

HD Teens Sex Tube Videos XxX 225160

Alice – The Repairman’s Groupie – Episode 413 ryushare uploaded keep2share

Alice – The Repairman’s Groupie – Episode 413

xvideo teen mania 226536 ryushare uploaded keep2share

xvideo teen mania 226536

Fresh Teen Videos 224791 ryushare uploaded keep2share

Fresh Teen Videos 224791

hd porn videos in England 226222 ryushare uploaded keep2share

hd porn videos in England 226222

1280×920 hd porn movie 226498 ryushare uploaded keep2share

1280×920 hd porn movie 226498

Creampie-Angels.com Sheri Vi ryushare uploaded keep2share

Creampie-Angels.com Sheri Vi

Movies Young legal porn 225865 ryushare uploaded keep2share

Movies Young legal porn 225865

Asustrlia sex videos hd com 226426 ryushare uploaded keep2share

Asustrlia sex videos hd com 226426

Lola Taylor & Franck Franco – Saturday Night ryushare uploaded keep2share

Lola Taylor & Franck Franco – Saturday Night

Sweet Teen Porn – Young Porn Videos 224044 ryushare uploaded keep2share

Sweet Teen Porn – Young Porn Videos 224044

HD Teen Sex Tube 2364 ryushare uploaded keep2share

HD Teen Sex Tube 2364

www xxxsexncon ryushare uploaded keep2share

www xxxsexncon

Small girls and boys porn 4639 ryushare uploaded keep2share

Small girls and boys porn 4639

Report broken links / Post a comment

You must be logged in to post a comment.



General
Complete name : D:hd teens porn download free onlineNew folder[WowPorn.com] Nikita – Craving For Sex. R E D.mp4
Format : MPEG-4
Format profile : Base Media
Codec ID : isom
File size : 679 MiB
Duration : 14mn 1s
Overall bit rate mode : Variable
Overall bit rate : 6 767 Kbps
Writing application : Lavf55.33.100

Video
ID : 1
Format : AVC
Format/Info : Advanced Video Codec
Format profile : High@L5.0
Format settings, CABAC : Yes
Format settings, ReFrames : 5 frames
Codec ID : avc1
Codec ID/Info : Advanced Video Coding
Duration : 14mn 1s
Bit rate : 6 603 Kbps
Width : 1 920 pixels
Height : 1 080 pixels
Display aspect ratio : 16:9
Frame rate mode : Constant
Frame rate : 59.940 fps
Color space : YUV
Chroma subsampling : 4:2:0
Bit depth : 8 bits
Scan type : Progressive
Bits/(Pixel*Frame) : 0.053
Stream size : 663 MiB (98%)
Writing library : x264 core 138
Encoding settings : cabac=1 / ref=5 / deblock=1:-1:-1 / analyse=0x3:0x113 / me=umh / subme=8 / psy=1 / psy_rd=1.00:0.15 / mixed_ref=1 / me_range=16 / chroma_me=1 / trellis=1 / 8x8dct=1 / cqm=0 / deadzone=21,11 / fast_pskip=1 / chroma_qp_offset=-3 / threads=8 / lookahead_threads=1 / sliced_threads=0 / nr=0 / decimate=1 / interlaced=0 / bluray_compat=0 / constrained_intra=0 / bframes=3 / b_pyramid=2 / b_adapt=2 / b_bias=0 / direct=3 / weightb=1 / open_gop=0 / weightp=2 / keyint=250 / keyint_min=25 / scenecut=40 / intra_refresh=0 / rc_lookahead=50 / rc=crf / mbtree=1 / crf=20.0 / qcomp=0.60 / qpmin=0 / qpmax=69 / qpstep=4 / ip_ratio=1.40 / aq=1:1.00
Language : Russian

Audio
ID : 2
Format : AAC
Format/Info : Advanced Audio Codec
Format profile : LC
Codec ID : 40
Duration : 14mn 1s
Bit rate mode : Variable
Bit rate : 152 Kbps
Maximum bit rate : 192 Kbps
Channel(s) : 2 channels
Channel positions : Front: L R
Sampling rate : 44.1 KHz
Compression mode : Lossy
Stream size : 15.3 MiB (2%)
Language : Russian