Norma – Welcome to fuck her for cash

Cecilia, Vanda – Everlasting LoveKatya - Creampie-Angels

Posted in Amateur, HD Porn, Sex Movies, Teen | 7708 Views |


Rate this girl !!!


(14 raters, 56 scores, average: 4.00 out of 5, 80%)

cover

1280x720p / MP4 / 345.15 MB

[SellYourGF.com] Norma – Welcome to fuck her for cash

 

SCREENSHOTS:

screens



DOWNLOAD

Keep2share.cc - Uploaded.net - Openload.co - Rapidu.net



Premium here:
uploaded.net
keep2share.cc
rapidu.net.cc


Teens related to Norma – Welcome to fuck her for cash


K Craving Lips 4 – CLIP A ryushare uploaded keep2share

K Craving Lips 4 – CLIP A

Hd young videos 3757 ryushare uploaded keep2share

Hd young videos 3757

www full sex xxx move com ryushare uploaded keep2share

www full sex xxx move com

hd porn movi downlod 226138 ryushare uploaded keep2share

hd porn movi downlod 226138

hq hd sexi 18 vidio daonlod com ryushare uploaded keep2share

hq hd sexi 18 vidio daonlod com

HD teen sex tube 3887 ryushare uploaded keep2share

HD teen sex tube 3887

Hardcore Sex Hub 225296 ryushare uploaded keep2share

Hardcore Sex Hub 225296

Porn party teen girls 225121 ryushare uploaded keep2share

Porn party teen girls 225121

HD Porn Videos 225579 ryushare uploaded keep2share

HD Porn Videos 225579

17sex viodeos 226514 ryushare uploaded keep2share

17sex viodeos 226514

Hd quality – Teen sex video 3819 ryushare uploaded keep2share

Hd quality – Teen sex video 3819

Girls sex art hd teens videos 225240 ryushare uploaded keep2share

Girls sex art hd teens videos 225240

HD Porn Teen Sex Videos 225071 ryushare uploaded keep2share

HD Porn Teen Sex Videos 225071

Free Porn Videos Xxx Movies Pussy Porn 225269 ryushare uploaded keep2share

Free Porn Videos Xxx Movies Pussy Porn 225269

Young 720p hd porn 4567 ryushare uploaded keep2share

Young 720p hd porn 4567

Tube Young Sex 3680 ryushare uploaded keep2share

Tube Young Sex 3680

Teen Sex Movies 224484 ryushare uploaded keep2share

Teen Sex Movies 224484

HD Sex World Videos High Definition Free Porn 1604 ryushare uploaded keep2share

HD Sex World Videos High Definition Free Porn 1604

Iwia A & Lorena B & Greg Baldwin – Dare ryushare uploaded keep2share

Iwia A & Lorena B & Greg Baldwin – Dare

The best Teen sex 4297 ryushare uploaded keep2share

The best Teen sex 4297

www hdvideo9 in porn ryushare uploaded keep2share

www hdvideo9 in porn

Teen porn movies 223816 ryushare uploaded keep2share

Teen porn movies 223816

Shining Ass – Bianca AKA: Aline, Asya ryushare uploaded keep2share

Shining Ass – Bianca AKA: Aline, Asya

K Three Teasing Tongues 4 ryushare uploaded keep2share

K Three Teasing Tongues 4

gibitube com porn 226071 ryushare uploaded keep2share

gibitube com porn 226071

Young XXX Tube Videos 225200 ryushare uploaded keep2share

Young XXX Tube Videos 225200

Argentina loves showing off her nice big boobs ryushare uploaded keep2share

Argentina loves showing off her nice big boobs

pc xxx movie clips 226764 ryushare uploaded keep2share

pc xxx movie clips 226764

Wow porn tube movies 224392 ryushare uploaded keep2share

Wow porn tube movies 224392

First time Sexual Films 18 sex xxx 5107 ryushare uploaded keep2share

First time Sexual Films 18 sex xxx 5107

Adult Hardcore XXX Sex Videos 225032 ryushare uploaded keep2share

Adult Hardcore XXX Sex Videos 225032

College Teen Sex 223710 ryushare uploaded keep2share

College Teen Sex 223710

High Definition Movies on HD Teen Porn XXX Tube 3652 ryushare uploaded keep2share

High Definition Movies on HD Teen Porn XXX Tube 3652

Hd young videos 2232 ryushare uploaded keep2share

Hd young videos 2232

Foxy Di – I’m all yours ryushare uploaded keep2share

Foxy Di – I’m all yours

Report broken links / Post a comment

You must be logged in to post a comment.



General
Complete name : D:[SellYourGF.com] Norma – Welcome to fuck her for cash.mp4
Format : MPEG-4
Format profile : Base Media
Codec ID : isom
File size : 345 MiB
Duration : 19mn 31s
Overall bit rate mode : Variable
Overall bit rate : 2 472 Kbps
Encoded date : UTC 1970-01-01 00:00:00
Tagged date : UTC 1970-01-01 00:00:00
Writing application : Lavf52.111.0

Video
ID : 1
Format : AVC
Format/Info : Advanced Video Codec
Format profile : High@L3.1
Format settings, CABAC : Yes
Format settings, ReFrames : 4 frames
Codec ID : avc1
Codec ID/Info : Advanced Video Coding
Duration : 19mn 31s
Bit rate : 2 354 Kbps
Width : 1 280 pixels
Height : 720 pixels
Display aspect ratio : 16:9
Frame rate mode : Constant
Frame rate : 25.000 fps
Color space : YUV
Chroma subsampling : 4:2:0
Bit depth : 8 bits
Scan type : Progressive
Bits/(Pixel*Frame) : 0.102
Stream size : 329 MiB (95%)
Writing library : x264 core 116
Encoding settings : cabac=1 / ref=3 / deblock=1:0:0 / analyse=0x3:0x113 / me=hex / subme=7 / psy=1 / psy_rd=1.00:0.00 / mixed_ref=1 / me_range=16 / chroma_me=1 / trellis=0 / 8x8dct=1 / cqm=0 / deadzone=21,11 / fast_pskip=1 / chroma_qp_offset=-2 / threads=16 / sliced_threads=0 / nr=0 / decimate=1 / interlaced=0 / bluray_compat=0 / constrained_intra=0 / bframes=8 / b_pyramid=2 / b_adapt=1 / b_bias=0 / direct=1 / weightb=1 / open_gop=0 / weightp=2 / keyint=50 / keyint_min=25 / scenecut=40 / intra_refresh=0 / rc_lookahead=40 / rc=crf / mbtree=1 / crf=20.0 / qcomp=0.60 / qpmin=10 / qpmax=51 / qpstep=4 / ip_ratio=1.41 / aq=1:1.00
Language : Russian
Encoded date : UTC 1970-01-01 00:00:00
Tagged date : UTC 1970-01-01 00:00:00

Audio
ID : 2
Format : AAC
Format/Info : Advanced Audio Codec
Format profile : LC
Codec ID : 40
Duration : 19mn 31s
Bit rate mode : Variable
Bit rate : 113 Kbps
Maximum bit rate : 128 Kbps
Channel(s) : 2 channels
Channel positions : Front: L R
Sampling rate : 44.1 KHz
Compression mode : Lossy
Stream size : 15.8 MiB (5%)
Language : Russian
Encoded date : UTC 1970-01-01 00:00:00
Tagged date : UTC 1970-01-01 00:00:00