NubileFilms.com Karol Lilien – Sounds Of Passion

Nubilefilms.com Elena Rae – Russian BeautyWebYoung.com Sammie Daniels, Samantha Rone

Posted in HD Porn, Pornstar, Sex Movies, Teen | 6772 Views |


Rate this girl !!!


(12 raters, 42 scores, average: 3.50 out of 5, 70%)

cover\r\n\r\n1920x1080p / MP4 / 1.1 GB\r\n

[NubileFilms.com] Karol Lilien – Sounds Of Passion

\r\nSCREENSHOTS:\r\n\r\nscreens



DOWNLOAD

Keep2share.cc - Uploaded.net - Openload.co - Rapidu.net


http://played.to/ql1i4if5o6wk

http://ul.to/92wfxit8/nvb1l3f1lms.sovnds.of.p4ss1on.192o.mp4


Premium here:
uploaded.net
keep2share.cc
rapidu.net.cc


Teens related to NubileFilms.com Karol Lilien – Sounds Of Passion


Sex in bed with beautiful redhead ryushare uploaded keep2share

Sex in bed with beautiful redhead

video porn massage porn ryushare uploaded keep2share

video porn massage porn

Porno movies young teens lesbian 5245 ryushare uploaded keep2share

Porno movies young teens lesbian 5245

Hot Teen Sex HD videos 225047 ryushare uploaded keep2share

Hot Teen Sex HD videos 225047

YoungCourtesans.com Shakti – Special Sex Arrangement ryushare uploaded keep2share

YoungCourtesans.com Shakti – Special Sex Arrangement

Fucking the ass of young amateur ryushare uploaded keep2share

Fucking the ass of young amateur

Good Teen Tube Sexy Young Naked Girls Movies 225493 ryushare uploaded keep2share

Good Teen Tube Sexy Young Naked Girls Movies 225493

sekxi hd video porn ryushare uploaded keep2share

sekxi hd video porn

Free High Quality Sex Movies 225117 ryushare uploaded keep2share

Free High Quality Sex Movies 225117

Teen Porn XXX Tube 1470 ryushare uploaded keep2share

Teen Porn XXX Tube 1470

non HD xxx movie ryushare uploaded keep2share

non HD xxx movie

Super hot teens fuck swim pool ryushare uploaded keep2share

Super hot teens fuck swim pool

Teenies Videos – Teen Porn, Teen Sex, XXX Free Videos 1642 ryushare uploaded keep2share

Teenies Videos – Teen Porn, Teen Sex, XXX Free Videos 1642

HD Porn Videos 4503 ryushare uploaded keep2share

HD Porn Videos 4503

George on Morgan ryushare uploaded keep2share

George on Morgan

Hot Teen Sex HD videos 224298 ryushare uploaded keep2share

Hot Teen Sex HD videos 224298

21Naturals Sweet Cat ryushare uploaded keep2share

21Naturals Sweet Cat

HD Porn Video 5646 ryushare uploaded keep2share

HD Porn Video 5646

High Definition Movies on HD 225835 ryushare uploaded keep2share

High Definition Movies on HD 225835

Teen Sex Porn Videos Free Nude Teens 5214 ryushare uploaded keep2share

Teen Sex Porn Videos Free Nude Teens 5214

Maaike – A nice handjob to finish it ryushare uploaded keep2share

Maaike – A nice handjob to finish it

Good Teen Tube Sexy Young Naked Girls Movies 225127 ryushare uploaded keep2share

Good Teen Tube Sexy Young Naked Girls Movies 225127

The best Teen sex 6196 ryushare uploaded keep2share

The best Teen sex 6196

sexy full movies hd pron ryushare uploaded keep2share

sexy full movies hd pron

Wow porn tube movies 5631 ryushare uploaded keep2share

Wow porn tube movies 5631

Good Teen Tube Sexy Young Naked Girls Movies 5521 ryushare uploaded keep2share

Good Teen Tube Sexy Young Naked Girls Movies 5521

Nude Teens fucking hard 225614 ryushare uploaded keep2share

Nude Teens fucking hard 225614

Porn teen hd downloads 5256 ryushare uploaded keep2share

Porn teen hd downloads 5256

College Teen Sex 224503 ryushare uploaded keep2share

College Teen Sex 224503

8teen xxx pcHD com ryushare uploaded keep2share

8teen xxx pcHD com

Hardcore Sex Hub 225185 ryushare uploaded keep2share

Hardcore Sex Hub 225185

HD porn uploaded 2790 ryushare uploaded keep2share

HD porn uploaded 2790

HD Sex World Videos High Definition Free Porn 225951 ryushare uploaded keep2share

HD Sex World Videos High Definition Free Porn 225951

Hot Teen Sex 1274 ryushare uploaded keep2share

Hot Teen Sex 1274

Young Sex Movies 224761 ryushare uploaded keep2share

Young Sex Movies 224761

Report broken links / Post a comment

You must be logged in to post a comment.



[NubileFilms.com] Karol Lilien – Sounds Of Passion\r\nGeneral\r\nComplete name : J:HD Teens Movies Young Downloads Online Clips Scenes 2 [NubileFilms.com] Karol Lilien – Sounds Of Passion.192o.mp4\r\nFormat : MPEG-4\r\nFormat profile : Base Media\r\nCodec ID : isom\r\nFile size : 1.10 GiB\r\nDuration : 19mn 51s\r\nOverall bit rate mode : Variable\r\nOverall bit rate : 7 898 Kbps\r\nWriting application : Lavf55.48.100\r\n\r\nVideo\r\nID : 1\r\nFormat : AVC\r\nFormat/Info : Advanced Video Codec\r\nFormat profile : Main@L4.0\r\nFormat settings, CABAC : Yes\r\nFormat settings, ReFrames : 4 frames\r\nCodec ID : avc1\r\nCodec ID/Info : Advanced Video Coding\r\nDuration : 19mn 51s\r\nBit rate : 7 739 Kbps\r\nWidth : 1 920 pixels\r\nHeight : 1 080 pixels\r\nDisplay aspect ratio : 16:9\r\nFrame rate mode : Constant\r\nFrame rate : 25.000 fps\r\nColor space : YUV\r\nChroma subsampling : 4:2:0\r\nBit depth : 8 bits\r\nScan type : Progressive\r\nBits/(Pixel*Frame) : 0.149\r\nStream size : 1.07 GiB (98%)\r\nWriting library : x264 core 142\r\nEncoding settings : cabac=1 / ref=2 / deblock=1:-1:-1 / analyse=0x1:0x111 / me=umh / subme=8 / psy=1 / psy_rd=1.00:0.15 / mixed_ref=1 / me_range=16 / chroma_me=1 / trellis=1 / 8x8dct=0 / cqm=0 / deadzone=21,11 / fast_pskip=1 / chroma_qp_offset=-3 / threads=24 / lookahead_threads=4 / sliced_threads=0 / nr=0 / decimate=1 / interlaced=0 / bluray_compat=0 / constrained_intra=0 / bframes=3 / b_pyramid=2 / b_adapt=2 / b_bias=0 / direct=3 / weightb=1 / open_gop=0 / weightp=0 / keyint=240 / keyint_min=24 / scenecut=40 / intra_refresh=0 / rc_lookahead=50 / rc=crf / mbtree=1 / crf=18.0 / qcomp=0.60 / qpmin=0 / qpmax=69 / qpstep=4 / ip_ratio=1.40 / aq=1:1.00\r\nLanguage : English\r\n\r\nAudio\r\nID : 2\r\nFormat : AAC\r\nFormat/Info : Advanced Audio Codec\r\nFormat profile : LC\r\nCodec ID : 40\r\nDuration : 19mn 51s\r\nDuration_LastFrame : -16ms\r\nBit rate mode : Variable\r\nBit rate : 152 Kbps\r\nMaximum bit rate : 196 Kbps\r\nChannel count : 2 channels\r\nChannel positions : Front: L R\r\nSampling rate : 44.1 KHz\r\nCompression mode : Lossy\r\nStream size : 21.6 MiB (2%)\r\nLanguage : English\r\n\r\n