NubileFilms.com Yozi – Epic Love

18YearsOld.com Alli Ray – Blindfold My BabyWowGirls.com Vanda – The pleasure Is All Mine

Posted in Amateur, HD Porn, Sex Movies, Teen | 10574 Views |


Rate this girl !!!


(27 raters, 103 scores, average: 3.82 out of 5, 76.3%)

cover\r\n\r\n1920x1080p / MP4 / 1.06 GB\r\n

[NubileFilms.com] Yozi – Epic Love

\r\n \r\n\r\nSCREENSHOTS:\r\n\r\nscreens



DOWNLOAD

Keep2share.cc - Uploaded.net - Openload.co - Rapidu.net


http://ryushare.com/c2nxi15gwrej/nvb1l3f1lms_3p1c_l0v3_1920.mp4

http://ul.to/48abkjfd/nvb1l3f1lms_3p1c_l0v3_1920.mp4
http://k2s.cc/file/30bfe12bc8643/nvb1l3f1lms_3p1c_l0v3_1920.mp4
http://played.to/gvpvskstgh3h


Premium here:
uploaded.net
keep2share.cc
rapidu.net.cc

Incoming search terms:

  • download yozi porn
  • Yozi hd
  • yozis pron
  • film yozis sexx full mofiEs
  • epic love nubile films
  • epic teen ul to
  • yozis porn
  • yozipron
  • Yozi/nubiles
  • yozi nubilefilms
  • epic love xxx hd com
  • nubile films yozi
  • yozi


Teens related to NubileFilms.com Yozi – Epic Love


Alyona – Hardcore Parlour ryushare uploaded keep2share

Alyona – Hardcore Parlour

Kail – My Favorite Country ryushare uploaded keep2share

Kail – My Favorite Country

Teen Tits Tube, Young Girls Porn Videos 224467 ryushare uploaded keep2share

Teen Tits Tube, Young Girls Porn Videos 224467

Young legal porn clips 2837 ryushare uploaded keep2share

Young legal porn clips 2837

HD Porn Teen Sex Videos 1122 ryushare uploaded keep2share

HD Porn Teen Sex Videos 1122

xxx movie hd colle 226176 ryushare uploaded keep2share

xxx movie hd colle 226176

HD Sex World Videos High Definition Free Porn 1604 ryushare uploaded keep2share

HD Sex World Videos High Definition Free Porn 1604

Free High Quality Sex Movies 1698 ryushare uploaded keep2share

Free High Quality Sex Movies 1698

Two Boys & One Girl – X-Art ryushare uploaded keep2share

Two Boys & One Girl – X-Art

Hot Teen Sex 2747 ryushare uploaded keep2share

Hot Teen Sex 2747

Teen xxx sex hd 225800 ryushare uploaded keep2share

Teen xxx sex hd 225800

www sex all world hd com 226654 ryushare uploaded keep2share

www sex all world hd com 226654

Free High Quality Sex Movies 225595 ryushare uploaded keep2share

Free High Quality Sex Movies 225595

Watch Teen Sex Videos HD 1595 ryushare uploaded keep2share

Watch Teen Sex Videos HD 1595

school porno movies ryushare uploaded keep2share

school porno movies

18xGirls Fucked Virgin teen ryushare uploaded keep2share

18xGirls Fucked Virgin teen

College Teen Sex 224503 ryushare uploaded keep2share

College Teen Sex 224503

Public Pick Ups – Lili Devil ryushare uploaded keep2share

Public Pick Ups – Lili Devil

Amateur Teen Sex 5388 ryushare uploaded keep2share

Amateur Teen Sex 5388

Hd teen party porn pics 226613 ryushare uploaded keep2share

Hd teen party porn pics 226613

Elly (My Secret Lover) ryushare uploaded keep2share

Elly (My Secret Lover)

Jenna Sativa Rebecca-Volpetti-GANGBANG ryushare uploaded keep2share

Jenna Sativa Rebecca-Volpetti-GANGBANG

Kaylee Haze – Wet Pussy Play ryushare uploaded keep2share

Kaylee Haze – Wet Pussy Play

HD Sex World Videos High Definition Free Porn 5367 ryushare uploaded keep2share

HD Sex World Videos High Definition Free Porn 5367

Sweet Teen Porn – Young Porn Videos 224227 ryushare uploaded keep2share

Sweet Teen Porn – Young Porn Videos 224227

Good Teen Tube Sexy Young Naked Girls Movies 2541 ryushare uploaded keep2share

Good Teen Tube Sexy Young Naked Girls Movies 2541

www 89xxxxxx in 226641 ryushare uploaded keep2share

www 89xxxxxx in 226641

Daisy, Karin ryushare uploaded keep2share

Daisy, Karin

Teen sex xxx hd 4873 ryushare uploaded keep2share

Teen sex xxx hd 4873

Porn shortest videos free download ryushare uploaded keep2share

Porn shortest videos free download

Gina Gerson – A Dream Of You ryushare uploaded keep2share

Gina Gerson – A Dream Of You

Teen sex xxx hd 2916 ryushare uploaded keep2share

Teen sex xxx hd 2916

Hardcore Sex Hub 224876 ryushare uploaded keep2share

Hardcore Sex Hub 224876

Lola Taylor & Franck Franco – Saturday Night ryushare uploaded keep2share

Lola Taylor & Franck Franco – Saturday Night

Julie Vee ryushare uploaded keep2share

Julie Vee

Report broken links / Post a comment

You must be logged in to post a comment.



General\r\nComplete name : D:hd teens porn download free online NubileFilms.com Yozi – Epic Love_hd 1920.mp4\r\nFormat : MPEG-4\r\nFormat profile : Base Media\r\nCodec ID : isom\r\nFile size : 1.06 GiB\r\nDuration : 17mn 35s\r\nOverall bit rate mode : Variable\r\nOverall bit rate : 8 594 Kbps\r\nWriting application : Lavf55.16.102\r\n\r\nVideo\r\nID : 1\r\nFormat : AVC\r\nFormat/Info : Advanced Video Codec\r\nFormat profile : Main@L4.0\r\nFormat settings, CABAC : Yes\r\nFormat settings, ReFrames : 4 frames\r\nCodec ID : avc1\r\nCodec ID/Info : Advanced Video Coding\r\nDuration : 17mn 35s\r\nBit rate : 8 475 Kbps\r\nWidth : 1 920 pixels\r\nHeight : 1 080 pixels\r\nDisplay aspect ratio : 16:9\r\nFrame rate mode : Constant\r\nFrame rate : 23.976 fps\r\nColor space : YUV\r\nChroma subsampling : 4:2:0\r\nBit depth : 8 bits\r\nScan type : Progressive\r\nBits/(Pixel*Frame) : 0.170\r\nStream size : 1.04 GiB (99%)\r\nWriting library : x264 core 123 r2189 35cf912\r\nEncoding settings : cabac=1 / ref=2 / deblock=1:-1:-1 / analyse=0x1:0x111 / me=umh / subme=8 / psy=1 / psy_rd=1.00:0.15 / mixed_ref=1 / me_range=16 / chroma_me=1 / trellis=1 / 8x8dct=0 / cqm=0 / deadzone=21,11 / fast_pskip=1 / chroma_qp_offset=-3 / threads=10 / sliced_threads=0 / nr=0 / decimate=1 / interlaced=0 / bluray_compat=0 / constrained_intra=0 / bframes=3 / b_pyramid=2 / b_adapt=2 / b_bias=0 / direct=3 / weightb=1 / open_gop=0 / weightp=0 / keyint=240 / keyint_min=24 / scenecut=40 / intra_refresh=0 / rc_lookahead=50 / rc=crf / mbtree=1 / crf=18.0 / qcomp=0.60 / qpmin=0 / qpmax=69 / qpstep=4 / ip_ratio=1.40 / aq=1:1.00\r\nLanguage : English\r\n\r\nAudio\r\nID : 2\r\nFormat : AAC\r\nFormat/Info : Advanced Audio Codec\r\nFormat profile : LC\r\nCodec ID : 40\r\nDuration : 17mn 35s\r\nDuration_LastFrame : -5ms\r\nBit rate mode : Variable\r\nBit rate : 113 Kbps\r\nMaximum bit rate : 196 Kbps\r\nChannel(s) : 2 channels\r\nChannel positions : Front: L R\r\nSampling rate : 44.1 KHz\r\nCompression mode : Lossy\r\nStream size : 14.2 MiB (1%)\r\nLanguage : English\r\n\r\n