Nubiles.net Olivia Devine – Outdoor Orgasm

NubileFilms.com Taylor Whyte – Finally HomeBabes.com Nataly Gold, Silvia Lauren – A guiding hand

Posted in HD Porn, Sex Movies, Solo, Teen | 12220 Views |


Rate this girl !!!




cover\r\n\r\n1920x1080p / MP4 / 815.25 MB\r\n

[Nubiles.net] Olivia Devine – Outdoor Orgasm

\r\nSCREENSHOTS:\r\n\r\nscreens



DOWNLOAD

Keep2share.cc - Uploaded.net - Openload.co - Rapidu.net


http://played.to/jopw5v444z3v

http://ul.to/lt1ynzg2/..Ol1v14.D3v1n3..Ovtdoor.Org4sm.(14.1o.14).mp4


Premium here:
uploaded.net
keep2share.cc
rapidu.net.cc


Teens related to Nubiles.net Olivia Devine – Outdoor Orgasm


Xxx comsexxx 226198 ryushare uploaded keep2share

Xxx comsexxx 226198

HD sex movies downloads 3452 ryushare uploaded keep2share

HD sex movies downloads 3452

Teen porn xxx 224836 ryushare uploaded keep2share

Teen porn xxx 224836

Hardcore Sex Hub 225124 ryushare uploaded keep2share

Hardcore Sex Hub 225124

xxx sex hd video mp4 226455 ryushare uploaded keep2share

xxx sex hd video mp4 226455

www18sexivideo com ryushare uploaded keep2share

www18sexivideo com

Www gri xxx com 226361 ryushare uploaded keep2share

Www gri xxx com 226361

18 Years Old Girl – Episode 279 ryushare uploaded keep2share

18 Years Old Girl – Episode 279

www 18year grils sex vedios 226269 ryushare uploaded keep2share

www 18year grils sex vedios 226269

Young teens tube hot girls free porn video 1296 ryushare uploaded keep2share

Young teens tube hot girls free porn video 1296

Tube Young Sex 1390 ryushare uploaded keep2share

Tube Young Sex 1390

Aiko Mai, Angellina – Sweet Like Candy ryushare uploaded keep2share

Aiko Mai, Angellina – Sweet Like Candy

pon ster xxxxxx ryushare uploaded keep2share

pon ster xxxxxx

Hardcore sex videos in the high definition quality 223782 ryushare uploaded keep2share

Hardcore sex videos in the high definition quality 223782

HD Porn Video 1701 ryushare uploaded keep2share

HD Porn Video 1701

Teenies Videos – Teen Porn, Teen Sex, XXX Free Videos 5163 ryushare uploaded keep2share

Teenies Videos – Teen Porn, Teen Sex, XXX Free Videos 5163

Tanned teen in pink sofa ryushare uploaded keep2share

Tanned teen in pink sofa

Teen Sex Movies Young Porn Tube Vids 5179 ryushare uploaded keep2share

Teen Sex Movies Young Porn Tube Vids 5179

Hot hd teen sex videos 2966 ryushare uploaded keep2share

Hot hd teen sex videos 2966

Nomi – Bikini Land ryushare uploaded keep2share

Nomi – Bikini Land

Barezzers sexhd com 226100 ryushare uploaded keep2share

Barezzers sexhd com 226100

Girls sex art hd teens videos 223832 ryushare uploaded keep2share

Girls sex art hd teens videos 223832

Wow Porn Movies download) 225823 ryushare uploaded keep2share

Wow Porn Movies download) 225823

Uploaded net porn 4879 ryushare uploaded keep2share

Uploaded net porn 4879

CastingCouch X Jayden Full HD ryushare uploaded keep2share

CastingCouch X Jayden Full HD

teen mega world HQ HD pron hub sex video free download net 226482 ryushare uploaded keep2share

teen mega world HQ HD pron hub sex video free download net 226482

Teen porn movies 2556 ryushare uploaded keep2share

Teen porn movies 2556

Watch Teen Sex Videos HD 4934 ryushare uploaded keep2share

Watch Teen Sex Videos HD 4934

HD Porn Teen Sex Videos 4207 ryushare uploaded keep2share

HD Porn Teen Sex Videos 4207

Teen Sex Movies Young Porn Tube Vids 2104 ryushare uploaded keep2share

Teen Sex Movies Young Porn Tube Vids 2104

full 1280p xxx video 226633 ryushare uploaded keep2share

full 1280p xxx video 226633

Teen xxx sex hd 224369 ryushare uploaded keep2share

Teen xxx sex hd 224369

Young Sex Movies 1335 ryushare uploaded keep2share

Young Sex Movies 1335

Young teens tube hot girls free porn video 1223 ryushare uploaded keep2share

Young teens tube hot girls free porn video 1223

xxx move hb bo 226572 ryushare uploaded keep2share

xxx move hb bo 226572

Report broken links / Post a comment

You must be logged in to post a comment.



[Nubiles.net] Olivia Devine – Outdoor Orgasm \r\n\r\nGeneral\r\nComplete name : J:HD Teens Movies Young Downloads Online Clips Scenes [Nubiles.net] Olivia Devine – Outdoor Orgasm .(14.1o.14).mp4\r\nFormat : MPEG-4\r\nFormat profile : Base Media\r\nCodec ID : isom\r\nFile size : 815 MiB\r\nDuration : 12mn 44s\r\nOverall bit rate : 8 940 Kbps\r\nWriting application : Lavf55.48.100\r\n\r\nVideo\r\nID : 1\r\nFormat : AVC\r\nFormat/Info : Advanced Video Codec\r\nFormat profile : Main@L4.0\r\nFormat settings, CABAC : Yes\r\nFormat settings, ReFrames : 4 frames\r\nCodec ID : avc1\r\nCodec ID/Info : Advanced Video Coding\r\nDuration : 12mn 44s\r\nBit rate : 8 780 Kbps\r\nWidth : 1 920 pixels\r\nHeight : 1 080 pixels\r\nDisplay aspect ratio : 16:9\r\nFrame rate mode : Constant\r\nFrame rate : 29.970 fps\r\nColor space : YUV\r\nChroma subsampling : 4:2:0\r\nBit depth : 8 bits\r\nScan type : Progressive\r\nBits/(Pixel*Frame) : 0.141\r\nStream size : 801 MiB (98%)\r\nWriting library : x264 core 142\r\nEncoding settings : cabac=1 / ref=2 / deblock=1:-1:-1 / analyse=0x1:0x111 / me=umh / subme=8 / psy=1 / psy_rd=1.00:0.15 / mixed_ref=1 / me_range=16 / chroma_me=1 / trellis=1 / 8x8dct=0 / cqm=0 / deadzone=21,11 / fast_pskip=1 / chroma_qp_offset=-3 / threads=12 / lookahead_threads=2 / sliced_threads=0 / nr=0 / decimate=1 / interlaced=0 / bluray_compat=0 / constrained_intra=0 / bframes=3 / b_pyramid=2 / b_adapt=2 / b_bias=0 / direct=3 / weightb=1 / open_gop=0 / weightp=0 / keyint=240 / keyint_min=24 / scenecut=40 / intra_refresh=0 / rc_lookahead=50 / rc=crf / mbtree=1 / crf=18.0 / qcomp=0.60 / qpmin=0 / qpmax=69 / qpstep=4 / ip_ratio=1.40 / aq=1:1.00\r\nLanguage : English\r\n\r\nAudio\r\nID : 2\r\nFormat : AAC\r\nFormat/Info : Advanced Audio Codec\r\nFormat profile : LC\r\nCodec ID : 40\r\nDuration : 12mn 44s\r\nDuration_LastFrame : 16ms\r\nBit rate mode : Constant\r\nBit rate : 152 Kbps\r\nChannel count : 2 channels\r\nChannel positions : Front: L R\r\nSampling rate : 44.1 KHz\r\nCompression mode : Lossy\r\nStream size : 13.8 MiB (2%)\r\nLanguage : English\r\n\r\n