NubilesPorn.com Jessie Volt – Juste Toi Et Moi

WowGirls.com Vanda – The pleasure Is All Mine21Naturals.com Beata Undine – Dreaming

Posted in HD Porn, Pornstar, Sex Movies, Teen | 25047 Views |


Rate this girl !!!




NubilesPorn.com Jessie Volt – Juste Toi Et Moi

\r\ncover\r\n\r\n1920x1080p / MP4 / 2.6 GB\r\n\r\nNubilesPorn.com Jessie Volt – Juste Toi Et Moi\r\n\r\nSCREENSHOTS:\r\n\r\nscreens\r\n\r\n 



DOWNLOAD

Keep2share.cc - Uploaded.net - Openload.co - Rapidu.net


http://ryushare.com/bcxnlt1lkyvf/j.s.te_t.oi_et_m.oi_1920.mp4
http://k2s.cc/file/b054854aba3ed/j.s.te_t.oi_et_m.oi_1920.mp4
http://ul.to/jl7nrwt1/j.s.te_t.oi_et_m.oi_1920.rar


Premium here:
uploaded.net
keep2share.cc
rapidu.net.cc

Teens related to NubilesPorn.com Jessie Volt – Juste Toi Et Moi


hot first time xxxvedio download Co com 226230 ryushare uploaded keep2share

hot first time xxxvedio download Co com 226230

Free High Quality Sex Movies 225699 ryushare uploaded keep2share

Free High Quality Sex Movies 225699

HD Porn Video 2499 ryushare uploaded keep2share

HD Porn Video 2499

Porn HQ Movei free downlode ryushare uploaded keep2share

Porn HQ Movei free downlode

Hot Teen Sex HD videos 2425 ryushare uploaded keep2share

Hot Teen Sex HD videos 2425

High Definition Movies on HD 4675 ryushare uploaded keep2share

High Definition Movies on HD 4675

Teen Sex Videos Tube Movies 3048 ryushare uploaded keep2share

Teen Sex Videos Tube Movies 3048

Hot Teen Sex HD videos 1883 ryushare uploaded keep2share

Hot Teen Sex HD videos 1883

Teen 18 Porn XXX Clips Naked 3465 ryushare uploaded keep2share

Teen 18 Porn XXX Clips Naked 3465

JimSlip – Tina Hot – From book-worm to whore ryushare uploaded keep2share

JimSlip – Tina Hot – From book-worm to whore

HQ Sex Movies Download 225936 ryushare uploaded keep2share

HQ Sex Movies Download 225936

pc hd fucking clip 226607 ryushare uploaded keep2share

pc hd fucking clip 226607

xxxsex video hd1080p dawnlod 226611 ryushare uploaded keep2share

xxxsex video hd1080p dawnlod 226611

sex hd romance 226550 ryushare uploaded keep2share

sex hd romance 226550

Hd young videos 224038 ryushare uploaded keep2share

Hd young videos 224038

Two cocks for a teen ryushare uploaded keep2share

Two cocks for a teen

HD SEX DOWNLOAD 100MB 226490 ryushare uploaded keep2share

HD SEX DOWNLOAD 100MB 226490

Beata, Mia, Vika-Nymph – Three For One ryushare uploaded keep2share

Beata, Mia, Vika-Nymph – Three For One

First time Sexual Films 18 sex xxx 224473 ryushare uploaded keep2share

First time Sexual Films 18 sex xxx 224473

Angelica – Good Night Kiss ryushare uploaded keep2share

Angelica – Good Night Kiss

www hdxxxfuck me 226303 ryushare uploaded keep2share

www hdxxxfuck me 226303

Young teens tube hot girls free porn video 5527 ryushare uploaded keep2share

Young teens tube hot girls free porn video 5527

Hd young videos 4525 ryushare uploaded keep2share

Hd young videos 4525

Good Teen Tube Sexy Young Naked Girls Movies 2370 ryushare uploaded keep2share

Good Teen Tube Sexy Young Naked Girls Movies 2370

[18OnlyGirls.com] Ada – Asian Teen Intense Anal Sex ryushare uploaded keep2share

[18OnlyGirls.com] Ada – Asian Teen Intense Anal Sex

Taissia Shanti – Delicate ryushare uploaded keep2share

Taissia Shanti – Delicate

Real Bushy Beavers 18 – Timea Bella ryushare uploaded keep2share

Real Bushy Beavers 18 – Timea Bella

KARLIE MONTANA’s Fetish Fantasies ryushare uploaded keep2share

KARLIE MONTANA’s Fetish Fantasies

High Definition Movies on HD 224619 ryushare uploaded keep2share

High Definition Movies on HD 224619

Sweet Teen Porn – Young Porn Videos 3539 ryushare uploaded keep2share

Sweet Teen Porn – Young Porn Videos 3539

Movies Young legal porn 224165 ryushare uploaded keep2share

Movies Young legal porn 224165

[RylskyArt.com] Solana – Kasanya ryushare uploaded keep2share

[RylskyArt.com] Solana – Kasanya

Creampie-Angels.com Licie ryushare uploaded keep2share

Creampie-Angels.com Licie

8 Teen XXX – Teen Sex 2117 ryushare uploaded keep2share

8 Teen XXX – Teen Sex 2117

Teens in Porno young porn videos and free teen sex 225010 ryushare uploaded keep2share

Teens in Porno young porn videos and free teen sex 225010

Report broken links / Post a comment

You must be logged in to post a comment.



General\r\nComplete name : D:hd teens porn download free onlineNubilesPorn.com Jessie Volt – Juste Toi Et Moi _1920.mp4\r\nFormat : MPEG-4\r\nFormat profile : Base Media\r\nCodec ID : isom\r\nFile size : 2.60 GiB\r\nDuration : 33mn 56s\r\nOverall bit rate mode : Variable\r\nOverall bit rate : 11.0 Mbps\r\nWriting application : Lavf55.16.102\r\n\r\nVideo\r\nID : 1\r\nFormat : AVC\r\nFormat/Info : Advanced Video Codec\r\nFormat profile : Main@L4.0\r\nFormat settings, CABAC : Yes\r\nFormat settings, ReFrames : 4 frames\r\nCodec ID : avc1\r\nCodec ID/Info : Advanced Video Coding\r\nDuration : 33mn 56s\r\nBit rate : 10.9 Mbps\r\nWidth : 1 920 pixels\r\nHeight : 1 080 pixels\r\nDisplay aspect ratio : 16:9\r\nFrame rate mode : Constant\r\nFrame rate : 29.970 fps\r\nColor space : YUV\r\nChroma subsampling : 4:2:0\r\nBit depth : 8 bits\r\nScan type : Progressive\r\nBits/(Pixel*Frame) : 0.175\r\nStream size : 2.58 GiB (99%)\r\nWriting library : x264 core 123 r2189 35cf912\r\nEncoding settings : cabac=1 / ref=2 / deblock=1:-1:-1 / analyse=0x1:0x111 / me=umh / subme=8 / psy=1 / psy_rd=1.00:0.15 / mixed_ref=1 / me_range=16 / chroma_me=1 / trellis=1 / 8x8dct=0 / cqm=0 / deadzone=21,11 / fast_pskip=1 / chroma_qp_offset=-3 / threads=10 / sliced_threads=0 / nr=0 / decimate=1 / interlaced=0 / bluray_compat=0 / constrained_intra=0 / bframes=3 / b_pyramid=2 / b_adapt=2 / b_bias=0 / direct=3 / weightb=1 / open_gop=0 / weightp=0 / keyint=250 / keyint_min=25 / scenecut=40 / intra_refresh=0 / rc_lookahead=50 / rc=crf / mbtree=1 / crf=18.0 / qcomp=0.60 / qpmin=0 / qpmax=69 / qpstep=4 / ip_ratio=1.40 / aq=1:1.00\r\nLanguage : English\r\n\r\nAudio\r\nID : 2\r\nFormat : AAC\r\nFormat/Info : Advanced Audio Codec\r\nFormat profile : LC\r\nCodec ID : 40\r\nDuration : 33mn 56s\r\nDuration_LastFrame : -14ms\r\nBit rate mode : Variable\r\nBit rate : 101 Kbps\r\nMaximum bit rate : 196 Kbps\r\nChannel(s) : 2 channels\r\nChannel positions : Front: L R\r\nSampling rate : 44.1 KHz\r\nCompression mode : Lossy\r\nStream size : 24.6 MiB (1%)\r\nLanguage : English\r\n\r\n