Passion-HD Lily Ariana 1080

Wowporn Barbara Sweet & Beata HDFree Porn Videos Xxx Movies Pussy Porn 85

Posted in HD Porn, Sex Movies, Teen, Threesome | Posted on 30-10-2013 | 5860 Views | FavoriteLoadingAdd to favorites

Rate this girl !!!



(16 raters, 56 scores, average: 3.50 out of 5, 70%)


porn-sex-teens-hd-thumb-2013-10-29-22h39m09s51

porn-sex-teens-hd-thumb-2013-10-29-22h41m13s40

porn-sex-teens-hd-thumb-2013-10-29-22h41m42s97

porn-sex-teens-hd-thumb-2013-10-29-22h42m59s81

porn-sex-teens-hd-thumb-2013-10-29-22h43m21s38

File: Passion-HD.Lily.Ariana.1080.wmv
Size: 2336415753 bytes (2.18 GiB), duration: 00:34:33, avg.bitrate: 9017 kb/s
Audio: wmav2, 44100 Hz, 2 channels, s16, 128 kb/s
Video: wmv3, yuv420p, 1920×1080, 9000 kb/s, 23.98 fps(r)




Premium here:
uploaded.net
keep2share.cc

Incoming search terms:

  • hd sex world
  • sexteens
  • porn 1080 hd
  • hd teen fucking pics
  • 18pron hub sex
  • porn sex video clips
  • fuck party teen
  • casting couch x ava
  • x art wowporn wowgirls video hd 720
  • Xxxsmall teen fuck porn pics
  • sex art hd passion
  • porn video(hd1080)
  • teen kitty porn pic
  • porn teen cum girl
  • teen porn fantasies
  • teenegers amateur sex xxx
  • tube hd porn 720
  • Uploaded tiny sex
  • videossexdpwnload com
  • www passionhd comsex
  • xxx klara hd teen full hd
  • xxx sexy teen massage
  • 1080 hd e haute qualité allemande Cinéma porno sexe gratuit
  • passıonshd com sex
  • 1080 porno passion


Tags: , , , , , , , , ,

Teens related to Passion-HD Lily Ariana 1080


Report broken links / Post a comment

You must be logged in to post a comment.



General
Complete name : H:TORRENTSPassion-HD.Lily.Ariana.1080.wmv
Format : Windows Media
File size : 2.18 GiB
Duration : 34mn 33s
Overall bit rate mode : Constant
Overall bit rate : 9 013 Kbps
Maximum Overall bit rate : 9 199 Kbps
Encoded date : UTC 2013-08-09 02:51:08.985

Video
ID : 2
Format : VC-1
Format profile : MP@HL
Codec ID : WMV3
Codec ID/Info : Windows Media Video 9
Codec ID/Hint : WMV3
Description of the codec : Windows Media Video 9 - Professional
Duration : 34mn 33s
Bit rate mode : Constant
Bit rate : 9 000 Kbps
Width : 1 920 pixels
Height : 1 080 pixels
Display aspect ratio : 16:9
Frame rate : 23.976 fps
Nominal frame rate : 29.970 fps
Bit depth : 8 bits
Scan type : Progressive
Compression mode : Lossy
Bits/(Pixel*Frame) : 0.181
Stream size : 2.17 GiB (100%)

Audio
ID : 1
Format : WMA
Format version : Version 2
Codec ID : 161
Codec ID/Info : Windows Media Audio
Description of the codec : Windows Media Audio 9.2 - 128 kbps, 44 kHz, stereo 2-pass CBR
Duration : 34mn 33s
Bit rate mode : Constant
Bit rate : 128 Kbps
Channel(s) : 2 channels
Sampling rate : 44.1 KHz
Bit depth : 16 bits
Stream size : 31.6 MiB (1%)