Remy’s Edging Orgasm Control

Anabelle Pync - Anabelle's sensual tease - 2014Veiki & Liona – Two Is Better Then One

Posted in HD Porn, Pornstar, Sex Movies, Teen | 17092 Views |


Rate this girl !!!




[Clips4sale.com/Mark’s Jefe anzuelos y Manos Jobbers] Remy’s Edging Orgasm Control

\r\nteen porn sex\r\n\r\n \r\n

\r\n

Genre: Handjob, cumshot, tease and denial, edging, POV\r\nDuration: 00:18:20\r\nDescription: Remy Lacroix their skillful hands slowly but surely bring the actor to the point and on the 19th minute, he explodes”.\r\nVideo Quality: HDRip\r\nVideo Format: WMV\r\nVideo codec: Windows Media\r\nAudio Codec: WMA\r\nVideo: Windows Media Video 8 1920×1080 7160kbps\r\nAudio: WMA 44100Hz stereo 128kbps 2

\r\n

\r\npic



DOWNLOAD

Keep2share.cc - Uploaded.net - Openload.co - Rapidu.net



http://k2s.cc/file/1c67445d55270/R3mys_3dg1ng_Org4sm_Control.wmv
http://played.to/e24wrnj7577a
http://ryushare.com/hwvvn5u95dmi/R3mys_3dg1ng_Org4sm_Control.wmv

http://ul.to/6jy6qx9u/R3mys%203dg1ng%20Org4sm%20Control.wmv


Premium here:
uploaded.net
keep2share.cc
rapidu.net.cc


Teens related to Remy’s Edging Orgasm Control


Hd quality – Teen sex video 2401 ryushare uploaded keep2share

Hd quality – Teen sex video 2401

Teenage Fuck Clips 1591 ryushare uploaded keep2share

Teenage Fuck Clips 1591

Check Out What Ive Learned ryushare uploaded keep2share

Check Out What Ive Learned

hd xxx girls collage image 226148 ryushare uploaded keep2share

hd xxx girls collage image 226148

The best Teen sex 224192 ryushare uploaded keep2share

The best Teen sex 224192

Model porno sex 2514 ryushare uploaded keep2share

Model porno sex 2514

Watch Teen Sex Videos HD 1226 ryushare uploaded keep2share

Watch Teen Sex Videos HD 1226

Teen Sex Movies Young Porn Tube Vids 1731 ryushare uploaded keep2share

Teen Sex Movies Young Porn Tube Vids 1731

Tube Young Sex 225873 ryushare uploaded keep2share

Tube Young Sex 225873

College Teen Sex 2994 ryushare uploaded keep2share

College Teen Sex 2994

Wow porn tube movies 225566 ryushare uploaded keep2share

Wow porn tube movies 225566

Teen porn movies 2668 ryushare uploaded keep2share

Teen porn movies 2668

Teen Porn XXX Tube 225019 ryushare uploaded keep2share

Teen Porn XXX Tube 225019

Sweet Teen Porn – Young Porn Videos 3834 ryushare uploaded keep2share

Sweet Teen Porn – Young Porn Videos 3834

Connie Stay by my Woman – YoungLegalPorn ryushare uploaded keep2share

Connie Stay by my Woman – YoungLegalPorn

Wow Porn Movies download) 224417 ryushare uploaded keep2share

Wow Porn Movies download) 224417

Taissia Shanti – Delicate ryushare uploaded keep2share

Taissia Shanti – Delicate

Petite Teeny Who Loves Cock ryushare uploaded keep2share

Petite Teeny Who Loves Cock

21Naturals.com Doris Ivy – Unchained ryushare uploaded keep2share

21Naturals.com Doris Ivy – Unchained

Tube xxx 224245 ryushare uploaded keep2share

Tube xxx 224245

X-Angels Licie ryushare uploaded keep2share

X-Angels Licie

HD Teen Sex Tube 3488 ryushare uploaded keep2share

HD Teen Sex Tube 3488

Teen Sex Movies 1210 ryushare uploaded keep2share

Teen Sex Movies 1210

Porn HD Sex HD Teen Sex 2573 ryushare uploaded keep2share

Porn HD Sex HD Teen Sex 2573

Porno movies young teens lesbian 224607 ryushare uploaded keep2share

Porno movies young teens lesbian 224607

[WowPorn.com] Feona – Humans Needs. R E D ryushare uploaded keep2share

[WowPorn.com] Feona – Humans Needs. R E D

www sex com video high quality free downloading 226323 ryushare uploaded keep2share

www sex com video high quality free downloading 226323

young prom xxx sex video hd download ryushare uploaded keep2share

young prom xxx sex video hd download

High Definition Movies on HD Teen Porn XXX Tube 1919 ryushare uploaded keep2share

High Definition Movies on HD Teen Porn XXX Tube 1919

PC HD MP4 XXX COM 226748 ryushare uploaded keep2share

PC HD MP4 XXX COM 226748

Big tits Big Ass Sex with model ryushare uploaded keep2share

Big tits Big Ass Sex with model

HQ Sex Movies Download 1132 ryushare uploaded keep2share

HQ Sex Movies Download 1132

Wow porn tube movies 225396 ryushare uploaded keep2share

Wow porn tube movies 225396

Free Teen Porn Videos at Teen Sex Tube XXX 3711 ryushare uploaded keep2share

Free Teen Porn Videos at Teen Sex Tube XXX 3711

Tinny young pornstar fucked for all holes ryushare uploaded keep2share

Tinny young pornstar fucked for all holes

Report broken links / Post a comment

You must be logged in to post a comment.



\r\nGeneral\r\nComplete name : D:hd teens porn download free online[Clips4sale.com/Mark's Jefe anzuelos y Manos Jobbers] Remy's Edging Orgasm Control.wmv\r\nFormat : Windows Media\r\nFile size : 987 MiB\r\nDuration : 18mn 20s\r\nOverall bit rate : 7 524 Kbps\r\nMaximum Overall bit rate : 7 439 Kbps\r\nEncoded date : UTC 1970-01-01 00:00:00.000\r\n\r\nVideo\r\nID : 1\r\nFormat : WMV2\r\nCodec ID : WMV2\r\nCodec ID/Info : Windows Media Video 8\r\nDescription of the codec : wmv2\r\nDuration : 18mn 20s\r\nBit rate : 7 089 Kbps\r\nWidth : 1 920 pixels\r\nHeight : 1 080 pixels\r\nDisplay aspect ratio : 16:9\r\nFrame rate : 29.970 fps\r\nBit depth : 8 bits\r\nBits/(Pixel*Frame) : 0.114\r\nStream size : 930 MiB (94%)\r\n\r\nAudio\r\nID : 2\r\nFormat : WMA\r\nFormat version : Version 2\r\nCodec ID : 161\r\nCodec ID/Info : Windows Media Audio\r\nDescription of the codec : Windows Media Audio V8\r\nDuration : 18mn 20s\r\nBit rate : 128 Kbps\r\nChannel(s) : 2 channels\r\nSampling rate : 44.1 KHz\r\nBit depth : 16 bits\r\nStream size : 16.8 MiB (2%)\r\n\r\n