Sara Luvv, Teddi Rae

Victoria Paradice – Where Did That Ass Come FromNancey – Dreams Come To Life

Posted in Amateur, HD Porn, Lesbian, Sex Movies, Teen, Threesome | 7864 Views |


Rate this girl !!!


(24 raters, 87 scores, average: 3.63 out of 5, 72.5%)

[NubilesCasting.com] Sara Luvv, Teddi Rae

cover

1920x1080p / MP4 / 2.07 GB

SCREENSHOTS:

screens



DOWNLOAD

Keep2share.cc - Uploaded.net - Openload.co - Rapidu.net



Premium here:
uploaded.net
keep2share.cc
rapidu.net.cc

Incoming search terms:

  • sara luvv Teddi Rae


Teens related to Sara Luvv, Teddi Rae


hd porn new breast 226190 ryushare uploaded keep2share

hd porn new breast 226190

Hot download sex girls movies 224257 ryushare uploaded keep2share

Hot download sex girls movies 224257

Shining Ass – Bianca AKA: Aline, Asya ryushare uploaded keep2share

Shining Ass – Bianca AKA: Aline, Asya

TrickyMasseur.com Aline ryushare uploaded keep2share

TrickyMasseur.com Aline

X-Angels.com Olivia ryushare uploaded keep2share

X-Angels.com Olivia

HD Teens Sex Tube Videos XxX 223790 ryushare uploaded keep2share

HD Teens Sex Tube Videos XxX 223790

Hd quality – Teen sex video 4257 ryushare uploaded keep2share

Hd quality – Teen sex video 4257

www teen fuckhd image gallary com 226522 ryushare uploaded keep2share

www teen fuckhd image gallary com 226522

Beautiful model ryushare uploaded keep2share

Beautiful model

Teen porn movies 5598 ryushare uploaded keep2share

Teen porn movies 5598

Nude Teens fucking hard 5172 ryushare uploaded keep2share

Nude Teens fucking hard 5172

Model porno sex 4859 ryushare uploaded keep2share

Model porno sex 4859

xxx sex hd video mp4 226455 ryushare uploaded keep2share

xxx sex hd video mp4 226455

Free Porn Videos Xxx Movies Pussy Porn 5286 ryushare uploaded keep2share

Free Porn Videos Xxx Movies Pussy Porn 5286

Hd 89xxx vedios com 226476 ryushare uploaded keep2share

Hd 89xxx vedios com 226476

www english xxx videos hd com 226742 ryushare uploaded keep2share

www english xxx videos hd com 226742

Teen Sex Videos Tube Movies 4086 ryushare uploaded keep2share

Teen Sex Videos Tube Movies 4086

www hd all xxxmovies com ryushare uploaded keep2share

www hd all xxxmovies com

Free Young Porn Videos XXX Teen Porn 223975 ryushare uploaded keep2share

Free Young Porn Videos XXX Teen Porn 223975

Small girls and boys porn 3511 ryushare uploaded keep2share

Small girls and boys porn 3511

bf 1080p xxxx sex xxx hd bf 226698 ryushare uploaded keep2share

bf 1080p xxxx sex xxx hd bf 226698

Molly – Deep and passionate anal ryushare uploaded keep2share

Molly – Deep and passionate anal

Big tits Big Ass Sex with model ryushare uploaded keep2share

Big tits Big Ass Sex with model

Hot Teen Sex HD videos 224860 ryushare uploaded keep2share

Hot Teen Sex HD videos 224860

Watch Teen Sex Videos HD 225525 ryushare uploaded keep2share

Watch Teen Sex Videos HD 225525

www Short hd sexvideos Com ryushare uploaded keep2share

www Short hd sexvideos Com

Www porn movie mkv download com 226307 ryushare uploaded keep2share

Www porn movie mkv download com 226307

The best Teen sex 3599 ryushare uploaded keep2share

The best Teen sex 3599

Amy – Pick Up Fuck With Blonde In Hot Lingerie ryushare uploaded keep2share

Amy – Pick Up Fuck With Blonde In Hot Lingerie

Russian Girls Cumshot Compilation ryushare uploaded keep2share

Russian Girls Cumshot Compilation

HQ Sex Movies Download 4182 ryushare uploaded keep2share

HQ Sex Movies Download 4182

free download hd romance porn movie 226678 ryushare uploaded keep2share

free download hd romance porn movie 226678

Teens sex mania 223786 ryushare uploaded keep2share

Teens sex mania 223786

Angelica, The Red Fox X-Art.com ryushare uploaded keep2share

Angelica, The Red Fox X-Art.com

Young Sex Movies 3968 ryushare uploaded keep2share

Young Sex Movies 3968

Report broken links / Post a comment

You must be logged in to post a comment.



General
Complete name : D:[NubilesCasting.com] Sara Luvv, Teddi Rae_hd teens porn movies free online downloads_1920.mp4
Format : MPEG-4
Format profile : Base Media
Codec ID : isom
File size : 2.07 GiB
Duration : 37mn 55s
Overall bit rate mode : Variable
Overall bit rate : 7 799 Kbps
Writing application : Lavf55.37.101

Video
ID : 1
Format : AVC
Format/Info : Advanced Video Codec
Format profile : Main@L4.0
Format settings, CABAC : Yes
Format settings, ReFrames : 4 frames
Codec ID : avc1
Codec ID/Info : Advanced Video Coding
Duration : 37mn 55s
Bit rate : 7 686 Kbps
Width : 1 920 pixels
Height : 1 080 pixels
Display aspect ratio : 16:9
Frame rate mode : Constant
Frame rate : 23.976 fps
Color space : YUV
Chroma subsampling : 4:2:0
Bit depth : 8 bits
Scan type : Progressive
Bits/(Pixel*Frame) : 0.155
Stream size : 2.04 GiB (99%)
Writing library : x264 core 142
Encoding settings : cabac=1 / ref=2 / deblock=1:-1:-1 / analyse=0x1:0x111 / me=umh / subme=8 / psy=1 / psy_rd=1.00:0.15 / mixed_ref=1 / me_range=16 / chroma_me=1 / trellis=1 / 8x8dct=0 / cqm=0 / deadzone=21,11 / fast_pskip=1 / chroma_qp_offset=-3 / threads=24 / lookahead_threads=4 / sliced_threads=0 / nr=0 / decimate=1 / interlaced=0 / bluray_compat=0 / constrained_intra=0 / bframes=3 / b_pyramid=2 / b_adapt=2 / b_bias=0 / direct=3 / weightb=1 / open_gop=0 / weightp=0 / keyint=250 / keyint_min=23 / scenecut=40 / intra_refresh=0 / rc_lookahead=50 / rc=crf / mbtree=1 / crf=18.0 / qcomp=0.60 / qpmin=0 / qpmax=69 / qpstep=4 / ip_ratio=1.40 / aq=1:1.00
Language : English

Audio
ID : 2
Format : AAC
Format/Info : Advanced Audio Codec
Format profile : LC
Codec ID : 40
Duration : 37mn 55s
Duration_LastFrame : -20ms
Bit rate mode : Variable
Bit rate : 107 Kbps
Maximum bit rate : 196 Kbps
Channel(s) : 2 channels
Channel positions : Front: L R
Sampling rate : 44.1 KHz
Compression mode : Lossy
Stream size : 29.0 MiB (1%)
Language : English