Schoolgirl white skin

Anal with beautiful teenBlonde fucked in all holes. Gang Bang

Posted in Amateur, HD Porn, Sex Movies, Teen | 67901 Views |


Rate this girl !!!




\r\n\r\n\r\n\r\n\r\n\r\n\r\n \r\n\r\n Link(667 Mb||26:39||1280*720||MP4)



DOWNLOAD

Keep2share.cc - Uploaded.net - Openload.co - Rapidu.net


http://keep2share.cc/file/52ddbf16fbe84
http://ul.to/ejhmj4eo
http://ryushare.com/1fec5b0e7f59/PRSRBRks.rar


Premium here:
uploaded.net
keep2share.cc
rapidu.net.cc

Teens related to Schoolgirl white skin


89 hd sex videos in 226208 ryushare uploaded keep2share

89 hd sex videos in 226208

www 8 ponr hb mp4 vibeo 226770 ryushare uploaded keep2share

www 8 ponr hb mp4 vibeo 226770

Wow Porn Movies download) 224417 ryushare uploaded keep2share

Wow Porn Movies download) 224417

Big tits blonde with pierced nipples ryushare uploaded keep2share

Big tits blonde with pierced nipples

sky hd movie xxx 226267 ryushare uploaded keep2share

sky hd movie xxx 226267

Teen porn movies 4620 ryushare uploaded keep2share

Teen porn movies 4620

Hd xxxvidoes download com 226192 ryushare uploaded keep2share

Hd xxxvidoes download com 226192

Watch Teen Sex Videos HD 1207 ryushare uploaded keep2share

Watch Teen Sex Videos HD 1207

Teen xxx sex hd 223813 ryushare uploaded keep2share

Teen xxx sex hd 223813

xxx movie hd colle 226176 ryushare uploaded keep2share

xxx movie hd colle 226176

Wow girls downloads hd 224420 ryushare uploaded keep2share

Wow girls downloads hd 224420

Brandy Naughty – First Time Auditions ryushare uploaded keep2share

Brandy Naughty – First Time Auditions

Teens in Porno young porn videos and free teen sex 225503 ryushare uploaded keep2share

Teens in Porno young porn videos and free teen sex 225503

Tube Young Sex 1390 ryushare uploaded keep2share

Tube Young Sex 1390

Young teens tube hot girls free porn video 4952 ryushare uploaded keep2share

Young teens tube hot girls free porn video 4952

Babes.com Nataly Gold, Silvia Lauren – A guiding hand ryushare uploaded keep2share

Babes.com Nataly Gold, Silvia Lauren – A guiding hand

WebYoung.com Sammie Daniels, Samantha Rone ryushare uploaded keep2share

WebYoung.com Sammie Daniels, Samantha Rone

www xxxsexncon ryushare uploaded keep2share

www xxxsexncon

HD Porn Teen Sex Videos 224669 ryushare uploaded keep2share

HD Porn Teen Sex Videos 224669

Teen porn movies 3457 ryushare uploaded keep2share

Teen porn movies 3457

www hd sex vediocom ryushare uploaded keep2share

www hd sex vediocom

www Short hd sexvideos Com ryushare uploaded keep2share

www Short hd sexvideos Com

Wow Porn Movies download) 224242 ryushare uploaded keep2share

Wow Porn Movies download) 224242

Young XXX Tube Videos 2812 ryushare uploaded keep2share

Young XXX Tube Videos 2812

foto xxx porn girl ryushare uploaded keep2share

foto xxx porn girl

Watch Teen Sex Videos HD 1216 ryushare uploaded keep2share

Watch Teen Sex Videos HD 1216

telar with girls sexe video you tube 226766 ryushare uploaded keep2share

telar with girls sexe video you tube 226766

porne vedio mkv formate 226102 ryushare uploaded keep2share

porne vedio mkv formate 226102

Jenny Simons – At The Right Time ryushare uploaded keep2share

Jenny Simons – At The Right Time

Teen xxx sex hd 223777 ryushare uploaded keep2share

Teen xxx sex hd 223777

fb www vdeio xxx 226305 ryushare uploaded keep2share

fb www vdeio xxx 226305

Wow Girls Porn Clips download 224663 ryushare uploaded keep2share

Wow Girls Porn Clips download 224663

Teen Sex Movies Young Porn Tube Vids 2930 ryushare uploaded keep2share

Teen Sex Movies Young Porn Tube Vids 2930

Hd young videos 4536 ryushare uploaded keep2share

Hd young videos 4536

sex videos with mkv ryushare uploaded keep2share

sex videos with mkv

Report broken links / Post a comment

You must be logged in to post a comment.



General\r\nComplete name : D:Schoolgirl white skinPRSRBRksPRSRBRks.mp4\r\nFormat : MPEG-4\r\nFormat profile : QuickTime\r\nCodec ID : qt \r\nFile size : 667 MiB\r\nDuration : 26mn 39s\r\nOverall bit rate mode : Variable\r\nOverall bit rate : 3 496 Kbps\r\nMovie name : Lara_Brookes_1080p_Epidemz.net\r\nWriting application : Lavf54.63.104\r\n\r\nVideo\r\nID : 1\r\nFormat : MPEG-4 Visual\r\nFormat profile : Simple@L3\r\nFormat settings, BVOP : No\r\nFormat settings, QPel : No\r\nFormat settings, GMC : No warppoints\r\nFormat settings, Matrix : Default (H.263)\r\nCodec ID : 20\r\nDuration : 26mn 39s\r\nBit rate mode : Constant\r\nBit rate : 3 297 Kbps\r\nWidth : 1 280 pixels\r\nHeight : 720 pixels\r\nDisplay aspect ratio : 16:9\r\nFrame rate mode : Constant\r\nFrame rate : 29.970 fps\r\nColor space : YUV\r\nChroma subsampling : 4:2:0\r\nBit depth : 8 bits\r\nScan type : Progressive\r\nCompression mode : Lossy\r\nBits/(Pixel*Frame) : 0.119\r\nStream size : 629 MiB (94%)\r\nWriting library : Lavc54.92.100\r\nLanguage : English\r\n\r\nAudio\r\nID : 2\r\nFormat : AAC\r\nFormat/Info : Advanced Audio Codec\r\nFormat profile : LC\r\nCodec ID : 40\r\nDuration : 26mn 39s\r\nBit rate mode : Variable\r\nBit rate : 192 Kbps\r\nMaximum bit rate : 3 300 Kbps\r\nChannel(s) : 2 channels\r\nChannel positions : Front: L R\r\nSampling rate : 48.0 KHz\r\nCompression mode : Lossy\r\nStream size : 36.6 MiB (5%)\r\nLanguage : English\r\n\r\n