Sex in the morning

Small girl having hot group sexBeautiful Teen Providing Ass Rimming To Her Boyfriend This Time

Posted in Amateur, HD Porn, Sex Movies, Teen | 18507 Views |


Rate this girl !!!




\r\n\r\nhttp://img55.imagetwist.com/i/05131/hld0i3j65kjw.jpg



DOWNLOAD

Keep2share.cc - Uploaded.net - Openload.co - Rapidu.net


http://ul.to/2blvas2o
http://keep2share.cc/file/52dd9ca629988
http://ryushare.com/52dadf29b5c0/SNMRNGcn.rar


Premium here:
uploaded.net
keep2share.cc
rapidu.net.cc


Teens related to Sex in the morning


HQ Sex Movies Download 5330 ryushare uploaded keep2share

HQ Sex Movies Download 5330

Hd quality – Teen sex video 3481 ryushare uploaded keep2share

Hd quality – Teen sex video 3481

Teens 1080p hd porn 4179 ryushare uploaded keep2share

Teens 1080p hd porn 4179

Porn party teen girls 223820 ryushare uploaded keep2share

Porn party teen girls 223820

Brunette Shelia Gets a Big Load Of Cum ryushare uploaded keep2share

Brunette Shelia Gets a Big Load Of Cum

Free Porn Videos Xxx Movies Pussy Porn 3592 ryushare uploaded keep2share

Free Porn Videos Xxx Movies Pussy Porn 3592

Free Teen Porn Videos at Teen Sex Tube XXX 3477 ryushare uploaded keep2share

Free Teen Porn Videos at Teen Sex Tube XXX 3477

Adult Hardcore XXX Sex Videos 3788 ryushare uploaded keep2share

Adult Hardcore XXX Sex Videos 3788

Young XXX Tube Videos 3230 ryushare uploaded keep2share

Young XXX Tube Videos 3230

Two Teasing Tongues 10 – B ryushare uploaded keep2share

Two Teasing Tongues 10 – B

Tube xxx 5228 ryushare uploaded keep2share

Tube xxx 5228

TrickyMasseur.com Joanna ryushare uploaded keep2share

TrickyMasseur.com Joanna

Wow porn tube movies 224325 ryushare uploaded keep2share

Wow porn tube movies 224325

download hd romantic porn movie 226329 ryushare uploaded keep2share

download hd romantic porn movie 226329

HD Porn Videos 224684 ryushare uploaded keep2share

HD Porn Videos 224684

Orgy with pornstar young blonde teen ryushare uploaded keep2share

Orgy with pornstar young blonde teen

Good Teen Tube Sexy Young Naked Girls Movies 224639 ryushare uploaded keep2share

Good Teen Tube Sexy Young Naked Girls Movies 224639

Wow Girls Porn Clips download 225928 ryushare uploaded keep2share

Wow Girls Porn Clips download 225928

Hd quality – Teen sex video 1299 ryushare uploaded keep2share

Hd quality – Teen sex video 1299

First time Sexual Films 18 sex xxx 225849 ryushare uploaded keep2share

First time Sexual Films 18 sex xxx 225849

Teen porn movies 224217 ryushare uploaded keep2share

Teen porn movies 224217

Wow girls porn teens 2578 ryushare uploaded keep2share

Wow girls porn teens 2578

fucking sex hd download 226750 ryushare uploaded keep2share

fucking sex hd download 226750

Tube xxx 224380 ryushare uploaded keep2share

Tube xxx 224380

Check Out What Ive Learned ryushare uploaded keep2share

Check Out What Ive Learned

Taissia Shanti – Hot and Steamy ryushare uploaded keep2share

Taissia Shanti – Hot and Steamy

Teen porn xxx 225534 ryushare uploaded keep2share

Teen porn xxx 225534

porn HD anfisa argentina ryushare uploaded keep2share

porn HD anfisa argentina

HD xxx videos direct mobi downloads 226051 ryushare uploaded keep2share

HD xxx videos direct mobi downloads 226051

Tracy Smile – Soldier ryushare uploaded keep2share

Tracy Smile – Soldier

Asian Amateur Video ryushare uploaded keep2share

Asian Amateur Video

Porno movies young teens lesbian 224607 ryushare uploaded keep2share

Porno movies young teens lesbian 224607

Teen Tits Tube, Young Girls Porn Videos 2712 ryushare uploaded keep2share

Teen Tits Tube, Young Girls Porn Videos 2712

Eva, Alberta, Niona, Nora – Sex party ryushare uploaded keep2share

Eva, Alberta, Niona, Nora – Sex party

HD Porn Teen Sex Videos 225926 ryushare uploaded keep2share

HD Porn Teen Sex Videos 225926

Report broken links / Post a comment

You must be logged in to post a comment.



General\r\nComplete name : D:JDdescargasSNMRNGcnSNMRNGcn.mp4\r\nFormat : MPEG-4\r\nFormat profile : Base Media\r\nCodec ID : isom\r\nFile size : 273 MiB\r\nDuration : 17mn 53s\r\nOverall bit rate : 2 133 Kbps\r\nEncoded date : UTC 2013-05-16 16:17:58\r\nTagged date : UTC 2013-05-16 16:17:58\r\nWriting application : Lavf53.32.100\r\n\r\nVideo\r\nID : 1\r\nFormat : AVC\r\nFormat/Info : Advanced Video Codec\r\nFormat profile : High@L3.1\r\nFormat settings, CABAC : Yes\r\nFormat settings, ReFrames : 5 frames\r\nCodec ID : avc1\r\nCodec ID/Info : Advanced Video Coding\r\nDuration : 17mn 53s\r\nBit rate : 2 000 Kbps\r\nWidth : 1 280 pixels\r\nHeight : 720 pixels\r\nDisplay aspect ratio : 16:9\r\nFrame rate mode : Constant\r\nFrame rate : 25.000 fps\r\nColor space : YUV\r\nChroma subsampling : 4:2:0\r\nBit depth : 8 bits\r\nScan type : Progressive\r\nBits/(Pixel*Frame) : 0.087\r\nStream size : 256 MiB (94%)\r\nWriting library : x264 core 129 r2245 bc13772\r\nEncoding settings : cabac=1 / ref=5 / deblock=1:0:0 / analyse=0x3:0x113 / me=umh / subme=8 / psy=0 / mixed_ref=1 / me_range=16 / chroma_me=1 / trellis=1 / 8x8dct=1 / cqm=0 / deadzone=21,11 / fast_pskip=1 / chroma_qp_offset=0 / threads=36 / lookahead_threads=6 / sliced_threads=0 / nr=0 / decimate=1 / interlaced=0 / bluray_compat=0 / constrained_intra=0 / bframes=3 / b_pyramid=2 / b_adapt=2 / b_bias=0 / direct=3 / weightb=1 / open_gop=0 / weightp=2 / keyint=250 / keyint_min=25 / scenecut=40 / intra_refresh=0 / rc=2pass / mbtree=0 / bitrate=2000 / ratetol=1.0 / qcomp=0.60 / qpmin=10 / qpmax=51 / qpstep=4 / cplxblur=20.0 / qblur=0.5 / ip_ratio=1.40 / pb_ratio=1.30 / aq=1:1.00\r\nLanguage : English\r\nEncoded date : UTC 2013-05-16 16:17:58\r\nTagged date : UTC 2013-05-16 16:17:58\r\n\r\nAudio\r\nID : 2\r\nFormat : AAC\r\nFormat/Info : Advanced Audio Codec\r\nFormat profile : LC\r\nCodec ID : 40\r\nDuration : 17mn 53s\r\nBit rate mode : Constant\r\nBit rate : 128 Kbps\r\nChannel(s) : 2 channels\r\nChannel positions : Front: L R\r\nSampling rate : 48.0 KHz\r\nCompression mode : Lossy\r\nStream size : 16.4 MiB (6%)\r\nLanguage : English\r\nEncoded date : UTC 2013-05-16 16:17:58\r\nTagged date : UTC 2013-05-16 16:17:58\r\n\r\n