Sex Teens porn movies 3602

First time Sexual Films 18 sex xxx 3607The best Teen sex 3599

Posted in HD Porn, Pornstar, Sex Movies, Teen, Threesome | 5705 Views |


Rate this girl !!!


(10 raters, 30 scores, average: 3.00 out of 5, 60%)






DOWNLOAD

Keep2share.cc - Uploaded.net - Openload.co - Rapidu.net



Premium here:
uploaded.net
keep2share.cc
rapidu.net.cc

Incoming search terms:

  • wwwhdsexwapcom
  • wwwhdsexwap com
  • wwwHD SEXWap com


Teens related to Sex Teens porn movies 3602


8 Teen XXX – Teen Sex 5638 ryushare uploaded keep2share

8 Teen XXX – Teen Sex 5638

Free High Quality Sex Movies 225016 ryushare uploaded keep2share

Free High Quality Sex Movies 225016

Cadence – Sex Massage ryushare uploaded keep2share

Cadence – Sex Massage

www8ten sex xxx com ryushare uploaded keep2share

www8ten sex xxx com

cina video hdxxx 226321 ryushare uploaded keep2share

cina video hdxxx 226321

HD Sex World Videos High Definition Free Porn 224629 ryushare uploaded keep2share

HD Sex World Videos High Definition Free Porn 224629

Young legal porn clips 3020 ryushare uploaded keep2share

Young legal porn clips 3020

Wow girls downloads hd 224254 ryushare uploaded keep2share

Wow girls downloads hd 224254

Young teens tube hot girls free porn video 224027 ryushare uploaded keep2share

Young teens tube hot girls free porn video 224027

Sweet Teen Porn – Young Porn Videos 2093 ryushare uploaded keep2share

Sweet Teen Porn – Young Porn Videos 2093

hd sex teen vidio 226777 ryushare uploaded keep2share

hd sex teen vidio 226777

Teen Porn XXX Tube 225059 ryushare uploaded keep2share

Teen Porn XXX Tube 225059

farst taim sex downlod ryushare uploaded keep2share

farst taim sex downlod

www sex video pc porn 226242 ryushare uploaded keep2share

www sex video pc porn 226242

www hd sex videos in low mb 226069 ryushare uploaded keep2share

www hd sex videos in low mb 226069

Fucking the ass of young amateur ryushare uploaded keep2share

Fucking the ass of young amateur

hard fuck hd image download 226631 ryushare uploaded keep2share

hard fuck hd image download 226631

Naomi Nevena ryushare uploaded keep2share

Naomi Nevena

Teens in Porno young porn videos and free teen sex 5182 ryushare uploaded keep2share

Teens in Porno young porn videos and free teen sex 5182

HD Teens Sex Tube Videos XxX 225300 ryushare uploaded keep2share

HD Teens Sex Tube Videos XxX 225300

Teen Porn XXX Tube 224141 ryushare uploaded keep2share

Teen Porn XXX Tube 224141

Amy – Pick Up Fuck With Blonde In Hot Lingerie ryushare uploaded keep2share

Amy – Pick Up Fuck With Blonde In Hot Lingerie

www HD xxxvideos downlaod com ryushare uploaded keep2share

www HD xxxvideos downlaod com

HD Teens Sex Tube Videos XxX 225635 ryushare uploaded keep2share

HD Teens Sex Tube Videos XxX 225635

Babes Giselle Leon 1080p ryushare uploaded keep2share

Babes Giselle Leon 1080p

Tube Young Sex 225873 ryushare uploaded keep2share

Tube Young Sex 225873

Sandy K – first hardcore !!! ryushare uploaded keep2share

Sandy K – first hardcore !!!

Hardcore Sex Hub 5391 ryushare uploaded keep2share

Hardcore Sex Hub 5391

Teenage Fuck Clips 225863 ryushare uploaded keep2share

Teenage Fuck Clips 225863

WowGirls.com Linda Sweet, Lucy Li – True Fulfillment ryushare uploaded keep2share

WowGirls.com Linda Sweet, Lucy Li – True Fulfillment

Young Sex Movies 225490 ryushare uploaded keep2share

Young Sex Movies 225490

HQ Sex Movies Download 5330 ryushare uploaded keep2share

HQ Sex Movies Download 5330

nude hot 226040 ryushare uploaded keep2share

nude hot 226040

Adult Hardcore XXX Sex Videos 5707 ryushare uploaded keep2share

Adult Hardcore XXX Sex Videos 5707

Teenage Fuck Clips 4003 ryushare uploaded keep2share

Teenage Fuck Clips 4003

Report broken links / Post a comment

You must be logged in to post a comment.



General
Complete name : D:hd pornstar ryushare uploaded.net keep2share fileomTNBSDKty.mp4
Format : MPEG-4
Format profile : Base Media
Codec ID : isom
File size : 1.21 GiB
Duration : 26mn 5s
Overall bit rate mode : Variable
Overall bit rate : 6 620 Kbps
Movie name : tbff_dakotaskye_samantharone_scene
Album/Performer : sscgroup
Description : This video is about tbff_dakotaskye_samantharone_scene
Writing application : Lavf55.12.100

Video
ID : 1
Format : AVC
Format/Info : Advanced Video Codec
Format profile : Baseline@L3.1
Format settings, CABAC : No
Format settings, ReFrames : 2 frames
Codec ID : avc1
Codec ID/Info : Advanced Video Coding
Duration : 26mn 5s
Bit rate : 6 517 Kbps
Width : 1 920 pixels
Height : 1 080 pixels
Display aspect ratio : 16:9
Frame rate mode : Constant
Frame rate : 23.976 fps
Color space : YUV
Chroma subsampling : 4:2:0
Bit depth : 8 bits
Scan type : Progressive
Bits/(Pixel*Frame) : 0.131
Stream size : 1.19 GiB (98%)
Writing library : x264 core 138 r2358 9e941d1
Encoding settings : cabac=0 / ref=2 / deblock=1:0:0 / analyse=0x1:0x111 / me=hex / subme=6 / psy=1 / psy_rd=1.00:0.00 / mixed_ref=1 / me_range=16 / chroma_me=1 / trellis=1 / 8x8dct=0 / cqm=0 / deadzone=21,11 / fast_pskip=1 / chroma_qp_offset=-2 / threads=2 / lookahead_threads=1 / sliced_threads=0 / nr=0 / decimate=1 / interlaced=0 / bluray_compat=0 / constrained_intra=0 / bframes=0 / weightp=0 / keyint=250 / keyint_min=23 / scenecut=40 / intra_refresh=0 / rc_lookahead=30 / rc=crf / mbtree=1 / crf=18.0 / qcomp=0.60 / qpmin=0 / qpmax=69 / qpstep=4 / ip_ratio=1.40 / aq=1:1.00
Language : English

Audio
ID : 2
Format : AAC
Format/Info : Advanced Audio Codec
Format profile : LC
Codec ID : 40
Duration : 26mn 5s
Duration_LastFrame : -18ms
Bit rate mode : Variable
Bit rate : 96.0 Kbps
Maximum bit rate : 128 Kbps
Channel(s) : 2 channels
Channel positions : Front: L R
Sampling rate : 48.0 KHz
Compression mode : Lossy
Stream size : 18.1 MiB (1%)
Language : English