Sexart – Carla Cox – The last night (Orgy)

Аvа Spаrххх & Veronica Radke - Working The EarthHD Teens Sex Tube Videos XxX 5719

Posted in HD Porn, Pornstar, Sex Movies, Teen, Threesome | 10376 Views |


Rate this girl !!!


(17 raters, 60 scores, average: 3.53 out of 5, 70.59%)

SexArt_2013-04-18_Snow-Fun-XI—The-Last-Night_Carla-Cox–Emylia-Argan–Gabi-de-Castello–Grace-C–Terry-Sullivan–Kristof-Cale–Matt-Ice–Will–720.rar

Sexart  – Carla Cox – The last night

Sexart  – Carla Cox – The last night

Sexart  – Carla Cox – The last night (Orgy)

Sexart  – Carla Cox – The last night (Orgy)

File: SexArt_2013-04-18_Snow-Fun-XI—The-Last-Night_Carla-Cox–Emylia-Argan–Gabi-de-Castello–Grace-C–Terry-Sullivan–Kristof-Cale–Matt-Ice-720.mp4
Size: 613447759 bytes (585.03 MiB), duration: 00:38:20, avg.bitrate: 2134 kb/s
Audio: aac, 48000 Hz, 2 channels, s16, 127 kb/s (eng)
Video: h264, yuv420p, 1280×720, 2000 kb/s, 25.00 fps(r) (eng)



DOWNLOAD

Keep2share.cc - Uploaded.net - Openload.co - Rapidu.net



Premium here:
uploaded.net
keep2share.cc
rapidu.net.cc

Incoming search terms:

  • HD89xxxxxx
  • Thelastnightorgy
  • Carla Cox Snow Fun SexArt
  • sexart scenes


Tags: , , , , , , , , , , ,

Teens related to Sexart – Carla Cox – The last night (Orgy)


HQ Sex Movies Download 1511 ryushare uploaded keep2share

HQ Sex Movies Download 1511

17sex viodeos 226514 ryushare uploaded keep2share

17sex viodeos 226514

8 Teen XXX – Teen Sex 5056 ryushare uploaded keep2share

8 Teen XXX – Teen Sex 5056

Lena, Galina – Fucking Together is Awesome ryushare uploaded keep2share

Lena, Galina – Fucking Together is Awesome

Porn massage young brunette ryushare uploaded keep2share

Porn massage young brunette

Nude Teens fucking hard 5172 ryushare uploaded keep2share

Nude Teens fucking hard 5172

HD Sex World Videos High Definition Free Porn 1997 ryushare uploaded keep2share

HD Sex World Videos High Definition Free Porn 1997

High Definition Movies on HD 224690 ryushare uploaded keep2share

High Definition Movies on HD 224690

HD Teen Sex Tube 1346 ryushare uploaded keep2share

HD Teen Sex Tube 1346

TrickyMasseur.com Raquel ryushare uploaded keep2share

TrickyMasseur.com Raquel

Movies Young legal porn 225153 ryushare uploaded keep2share

Movies Young legal porn 225153

sex videos in mkv free download 226464 ryushare uploaded keep2share

sex videos in mkv free download 226464

X-Angels.com Olivia ryushare uploaded keep2share

X-Angels.com Olivia

Veronica Radke Tube Young Sex 3483 ryushare uploaded keep2share

Veronica Radke Tube Young Sex 3483

Amateur Teen Sex 5266 ryushare uploaded keep2share

Amateur Teen Sex 5266

JoyMii.com Lara – Getting Laid ryushare uploaded keep2share

JoyMii.com Lara – Getting Laid

Young 720p hd porn 4567 ryushare uploaded keep2share

Young 720p hd porn 4567

Teens sex mania 225690 ryushare uploaded keep2share

Teens sex mania 225690

Wow Porn Movies download) 5319 ryushare uploaded keep2share

Wow Porn Movies download) 5319

Free Young Porn Videos XXX Teen Porn 4185 ryushare uploaded keep2share

Free Young Porn Videos XXX Teen Porn 4185

Sara Luvv – Dorm Room Invitation ryushare uploaded keep2share

Sara Luvv – Dorm Room Invitation

HD Teen Sex Tube 224831 ryushare uploaded keep2share

HD Teen Sex Tube 224831

8 Teen XXX – Teen Sex 3987 ryushare uploaded keep2share

8 Teen XXX – Teen Sex 3987

Young XXX Tube Videos 2002 ryushare uploaded keep2share

Young XXX Tube Videos 2002

Free High Quality Sex Movies 5357 ryushare uploaded keep2share

Free High Quality Sex Movies 5357

Sweet Teen Porn – Young Porn Videos 224812 ryushare uploaded keep2share

Sweet Teen Porn – Young Porn Videos 224812

HQ Sex Movies Download 225044 ryushare uploaded keep2share

HQ Sex Movies Download 225044

pron xxx hq 1280p 226224 ryushare uploaded keep2share

pron xxx hq 1280p 226224

HQ Sex Movies Download 4353 ryushare uploaded keep2share

HQ Sex Movies Download 4353

Cute face hot pussy – Angel Hot ryushare uploaded keep2share

Cute face hot pussy – Angel Hot

K Two Teasing Tongues 8 A ryushare uploaded keep2share

K Two Teasing Tongues 8 A

low mb hd sex video downlod 226309 ryushare uploaded keep2share

low mb hd sex video downlod 226309

Tube xxx 5228 ryushare uploaded keep2share

Tube xxx 5228

HD porn uploaded 4876 ryushare uploaded keep2share

HD porn uploaded 4876

Sweet Teen Porn – Young Porn Videos 224239 ryushare uploaded keep2share

Sweet Teen Porn – Young Porn Videos 224239

Report broken links / Post a comment

You must be logged in to post a comment.



General
Complete name : H:HD TEENS PORNDOWNLOADRYUSHAREUPLOADEDKEEP2SHARESexArt_2013-04-18_Snow-Fun-XI---The-Last-Night_Carla-Cox--Emylia-Argan--Gabi-de-Castello--Grace-C--Terry-Sullivan--Kristof-Cale--Matt-Ice--Will-S_by_Andrej-Lupin-720.mp4
Format : MPEG-4
Format profile : Base Media
Codec ID : isom
File size : 585 MiB
Duration : 38mn 20s
Overall bit rate mode : Variable
Overall bit rate : 2 133 Kbps
Encoded date : UTC 2013-04-05 19:30:03
Tagged date : UTC 2013-04-05 19:30:03
Writing application : Lavf53.32.100
Comment : Download from HDteenmania.com

Video
ID : 1
Format : AVC
Format/Info : Advanced Video Codec
Format profile : High@L3.1
Format settings, CABAC : Yes
Format settings, ReFrames : 5 frames
Codec ID : avc1
Codec ID/Info : Advanced Video Coding
Duration : 38mn 20s
Bit rate mode : Variable
Bit rate : 2 000 Kbps
Width : 1 280 pixels
Height : 720 pixels
Display aspect ratio : 16:9
Frame rate mode : Constant
Frame rate : 25.000 fps
Color space : YUV
Chroma subsampling : 4:2:0
Bit depth : 8 bits
Scan type : Progressive
Bits/(Pixel*Frame) : 0.087
Stream size : 549 MiB (94%)
Writing library : x264 core 129 r2245 bc13772
Encoding settings : cabac=1 / ref=5 / deblock=1:0:0 / analyse=0x3:0x113 / me=umh / subme=8 / psy=0 / mixed_ref=1 / me_range=16 / chroma_me=1 / trellis=1 / 8x8dct=1 / cqm=0 / deadzone=21,11 / fast_pskip=1 / chroma_qp_offset=0 / threads=36 / lookahead_threads=6 / sliced_threads=0 / nr=0 / decimate=1 / interlaced=0 / bluray_compat=0 / constrained_intra=0 / bframes=3 / b_pyramid=2 / b_adapt=2 / b_bias=0 / direct=3 / weightb=1 / open_gop=0 / weightp=2 / keyint=250 / keyint_min=25 / scenecut=40 / intra_refresh=0 / rc=2pass / mbtree=0 / bitrate=2000 / ratetol=1.0 / qcomp=0.60 / qpmin=10 / qpmax=51 / qpstep=4 / cplxblur=20.0 / qblur=0.5 / ip_ratio=1.40 / pb_ratio=1.30 / aq=1:1.00
Language : English
Encoded date : UTC 2013-04-05 19:30:03
Tagged date : UTC 2013-04-05 19:30:03

Audio
ID : 2
Format : AAC
Format/Info : Advanced Audio Codec
Format profile : LC
Codec ID : 40
Duration : 38mn 20s
Bit rate mode : Variable
Bit rate : 128 Kbps
Channel(s) : 2 channels
Channel positions : Front: L R
Sampling rate : 48.0 KHz
Compression mode : Lossy
Delay relative to video : 80ms
Stream size : 34.9 MiB (6%)
Language : English
Encoded date : UTC 2013-04-05 19:30:03
Tagged date : UTC 2013-04-05 19:30:03