Silvie Deluxe & Matt Ice – Drive

Chelsy Sun & Thomas Lee – Play With MeLucy Li & William Zeff – With Love

Posted in HD Porn, Pornstar, Sex Movies, Teen | 7207 Views |


Rate this girl !!!




cover\r\n\r\n1920x1080p / MP4 / 1.01 GB\r\n

[SexArt.com] Silvie Deluxe & Matt Ice – Drive

\r\nSCREENSHOTS:\r\n\r\nscreens



DOWNLOAD

Keep2share.cc - Uploaded.net - Openload.co - Rapidu.net


http://k2s.cc/file/c9ee20d8a8221/s1lv13-d3lux3-4nd-m4tt-1c3_dr1v3_1080p.mp4

http://ul.to/az0s0xvy/s1lv13-d3lux3-4nd-m4tt-1c3_dr1v3_1080p.mp4


Premium here:
uploaded.net
keep2share.cc
rapidu.net.cc


Teens related to Silvie Deluxe & Matt Ice – Drive


Connie Stay by my Woman – YoungLegalPorn ryushare uploaded keep2share

Connie Stay by my Woman – YoungLegalPorn

Hardcore sex videos in the high definition quality 224715 ryushare uploaded keep2share

Hardcore sex videos in the high definition quality 224715

Teens 1080p hd porn 2563 ryushare uploaded keep2share

Teens 1080p hd porn 2563

HD Porn Videos 1169 ryushare uploaded keep2share

HD Porn Videos 1169

wow cum com hd 226397 ryushare uploaded keep2share

wow cum com hd 226397

College Teen Sex 5458 ryushare uploaded keep2share

College Teen Sex 5458

Teen Sex Videos Tube Movies 224560 ryushare uploaded keep2share

Teen Sex Videos Tube Movies 224560

8 Teen XXX – Teen Sex 224449 ryushare uploaded keep2share

8 Teen XXX – Teen Sex 224449

yunga grls porn sex com ryushare uploaded keep2share

yunga grls porn sex com

x-art no turning back part two video 226470 ryushare uploaded keep2share

x-art no turning back part two video 226470

Tube Young Sex 224260 ryushare uploaded keep2share

Tube Young Sex 224260

www xxx18yeras movie hot 226733 ryushare uploaded keep2share

www xxx18yeras movie hot 226733

Casting Vikki 1080p ryushare uploaded keep2share

Casting Vikki 1080p

Nubiles.net Olivia Devine – Outdoor Orgasm ryushare uploaded keep2share

Nubiles.net Olivia Devine – Outdoor Orgasm

HD Porn Teen Sex Videos 2783 ryushare uploaded keep2share

HD Porn Teen Sex Videos 2783

K Three Teasing Tongues 3 ryushare uploaded keep2share

K Three Teasing Tongues 3

Teen Porn XXX Tube 2208 ryushare uploaded keep2share

Teen Porn XXX Tube 2208

Audrina Grace – Better Than Breakfast In Bed ryushare uploaded keep2share

Audrina Grace – Better Than Breakfast In Bed

Watch Teen Sex Videos HD 4135 ryushare uploaded keep2share

Watch Teen Sex Videos HD 4135

Good Teen Tube Sexy Young Naked Girls Movies 1383 ryushare uploaded keep2share

Good Teen Tube Sexy Young Naked Girls Movies 1383

Teen 18 Porn XXX Clips Naked 3465 ryushare uploaded keep2share

Teen 18 Porn XXX Clips Naked 3465

young xxx porn hd ryushare uploaded keep2share

young xxx porn hd

Teen Sex Movies 223950 ryushare uploaded keep2share

Teen Sex Movies 223950

Young XXX Tube Videos 224700 ryushare uploaded keep2share

Young XXX Tube Videos 224700

Porno lesbian young teens movies 4143 ryushare uploaded keep2share

Porno lesbian young teens movies 4143

High Definition Movies on HD 1647 ryushare uploaded keep2share

High Definition Movies on HD 1647

Tinny young pornstar fucked for all holes ryushare uploaded keep2share

Tinny young pornstar fucked for all holes

www 21Naturals sex video com ryushare uploaded keep2share

www 21Naturals sex video com

K Three Teasing Tongues 4 ryushare uploaded keep2share

K Three Teasing Tongues 4

Wow girls porn teens 4254 ryushare uploaded keep2share

Wow girls porn teens 4254

Hardcore sex videos in the high definition quality 224111 ryushare uploaded keep2share

Hardcore sex videos in the high definition quality 224111

Teen Sex Videos Tube Movies 225416 ryushare uploaded keep2share

Teen Sex Videos Tube Movies 225416

Teen Sex Movies Young Porn Tube Vids 4094 ryushare uploaded keep2share

Teen Sex Movies Young Porn Tube Vids 4094

direct link hd porn 225998 ryushare uploaded keep2share

direct link hd porn 225998

www hd sex vediocom ryushare uploaded keep2share

www hd sex vediocom

Report broken links / Post a comment

You must be logged in to post a comment.



General\r\nComplete name : D:[SexArt.com] Silvie Deluxe & Matt Ice – Drive.mp4\r\nFormat : MPEG-4\r\nFormat profile : Base Media\r\nCodec ID : isom\r\nFile size : 1.01 GiB\r\nDuration : 17mn 46s\r\nOverall bit rate mode : Variable\r\nOverall bit rate : 8 117 Kbps\r\nEncoded date : UTC 2014-03-10 21:37:53\r\nTagged date : UTC 2014-03-10 21:37:53\r\nWriting application : Lavf53.32.100\r\n\r\nVideo\r\nID : 1\r\nFormat : AVC\r\nFormat/Info : Advanced Video Codec\r\nFormat profile : High@L5.0\r\nFormat settings, CABAC : Yes\r\nFormat settings, ReFrames : 5 frames\r\nCodec ID : avc1\r\nCodec ID/Info : Advanced Video Coding\r\nDuration : 17mn 46s\r\nBit rate : 8 000 Kbps\r\nWidth : 1 920 pixels\r\nHeight : 1 080 pixels\r\nDisplay aspect ratio : 16:9\r\nFrame rate mode : Constant\r\nFrame rate : 50.000 fps\r\nColor space : YUV\r\nChroma subsampling : 4:2:0\r\nBit depth : 8 bits\r\nScan type : Progressive\r\nBits/(Pixel*Frame) : 0.077\r\nStream size : 1 014 MiB (98%)\r\nWriting library : x264 core 129 r2245 bc13772\r\nEncoding settings : cabac=1 / ref=5 / deblock=1:0:0 / analyse=0x3:0x113 / me=umh / subme=8 / psy=0 / mixed_ref=1 / me_range=16 / chroma_me=1 / trellis=1 / 8x8dct=1 / cqm=0 / deadzone=21,11 / fast_pskip=1 / chroma_qp_offset=0 / threads=36 / lookahead_threads=6 / sliced_threads=0 / nr=0 / decimate=1 / interlaced=0 / bluray_compat=0 / constrained_intra=0 / bframes=3 / b_pyramid=2 / b_adapt=2 / b_bias=0 / direct=3 / weightb=1 / open_gop=0 / weightp=2 / keyint=250 / keyint_min=25 / scenecut=40 / intra_refresh=0 / rc=2pass / mbtree=0 / bitrate=8000 / ratetol=1.0 / qcomp=0.60 / qpmin=10 / qpmax=51 / qpstep=4 / cplxblur=20.0 / qblur=0.5 / ip_ratio=1.40 / pb_ratio=1.30 / aq=1:1.00\r\nLanguage : English\r\nEncoded date : UTC 2014-03-10 21:37:53\r\nTagged date : UTC 2014-03-10 21:37:53\r\n\r\nAudio\r\nID : 2\r\nFormat : AAC\r\nFormat/Info : Advanced Audio Codec\r\nFormat profile : LC\r\nCodec ID : 40\r\nDuration : 17mn 46s\r\nBit rate mode : Variable\r\nBit rate : 128 Kbps\r\nChannel(s) : 2 channels\r\nChannel positions : Front: L R\r\nSampling rate : 44.1 KHz\r\nCompression mode : Lossy\r\nStream size : 16.2 MiB (2%)\r\nLanguage : English\r\nEncoded date : UTC 2014-03-10 21:37:53\r\nTagged date : UTC 2014-03-10 21:37:53\r\n[SexArt.com] Silvie Deluxe & Matt Ice – Drive\r\n