Silvie Luca – Give And Take

Veronika – Awesome sex with hot teeny[FuckStudies.com] Iren

Posted in Amateur, HD Porn, Sex Movies, Teen | 8760 Views |


Rate this girl !!!


(11 raters, 41 scores, average: 3.73 out of 5, 74.55%)

[NubileFilms.com] Silvie Luca – Give And Take

cover

1920x1080p / MP4 / 497.56 MB

SCREENSHOTS:

screens



DOWNLOAD

Keep2share.cc - Uploaded.net - Openload.co - Rapidu.net



Premium here:
uploaded.net
keep2share.cc
rapidu.net.cc


Teens related to Silvie Luca – Give And Take


Fresh Teen Videos 224583 ryushare uploaded keep2share

Fresh Teen Videos 224583

HD xxx videos direct mobi downloads 226051 ryushare uploaded keep2share

HD xxx videos direct mobi downloads 226051

Hot download sex girls movies 5685 ryushare uploaded keep2share

Hot download sex girls movies 5685

www pussyHD picture ryushare uploaded keep2share

www pussyHD picture

GirlsDoPorn – 19 Years Old Girl – Legal Teens ryushare uploaded keep2share

GirlsDoPorn – 19 Years Old Girl – Legal Teens

Wow girls porn teens 2578 ryushare uploaded keep2share

Wow girls porn teens 2578

The best Teen sex 225855 ryushare uploaded keep2share

The best Teen sex 225855

Teen Porn XXX Tube 225930 ryushare uploaded keep2share

Teen Porn XXX Tube 225930

kyra hot and kiara lord klixen three teasing tongues 226098 ryushare uploaded keep2share

kyra hot and kiara lord klixen three teasing tongues 226098

Porno movies young teens lesbian 223864 ryushare uploaded keep2share

Porno movies young teens lesbian 223864

Young teens tube hot girls free porn video 225076 ryushare uploaded keep2share

Young teens tube hot girls free porn video 225076

Free High Quality Sex Movies 225393 ryushare uploaded keep2share

Free High Quality Sex Movies 225393

Pornstar teen fucked in all holes ryushare uploaded keep2share

Pornstar teen fucked in all holes

Teen Porn XXX Tube 224909 ryushare uploaded keep2share

Teen Porn XXX Tube 224909

Teenage Fuck Clips 3782 ryushare uploaded keep2share

Teenage Fuck Clips 3782

Hd teen party porn pics 226613 ryushare uploaded keep2share

Hd teen party porn pics 226613

Bella Baby – Opposites Attract ryushare uploaded keep2share

Bella Baby – Opposites Attract

HD Teens Sex Tube Videos XxX 225635 ryushare uploaded keep2share

HD Teens Sex Tube Videos XxX 225635

Free Young Porn Videos XXX Teen Porn 4185 ryushare uploaded keep2share

Free Young Porn Videos XXX Teen Porn 4185

Teen porn xxx 5502 ryushare uploaded keep2share

Teen porn xxx 5502

21Naturals.com Ava Dalush – Puppeteer ryushare uploaded keep2share

21Naturals.com Ava Dalush – Puppeteer

Hot sex girls movies download 4277 ryushare uploaded keep2share

Hot sex girls movies download 4277

Teen porn movies 2671 ryushare uploaded keep2share

Teen porn movies 2671

Jada – A Manwhore For Me ryushare uploaded keep2share

Jada – A Manwhore For Me

Teen 18 Porn XXX Clips Naked 2154 ryushare uploaded keep2share

Teen 18 Porn XXX Clips Naked 2154

Teen Sex Videos Tube Movies 224998 ryushare uploaded keep2share

Teen Sex Videos Tube Movies 224998

Movies Young legal porn 225865 ryushare uploaded keep2share

Movies Young legal porn 225865

Wow Girls Porn Clips download 225841 ryushare uploaded keep2share

Wow Girls Porn Clips download 225841

Brandy Naughty – First Time Auditions ryushare uploaded keep2share

Brandy Naughty – First Time Auditions

porn movie hd romantic download 226228 ryushare uploaded keep2share

porn movie hd romantic download 226228

Teen xxx sex hd 224286 ryushare uploaded keep2share

Teen xxx sex hd 224286

Hot sex girls movies download 3874 ryushare uploaded keep2share

Hot sex girls movies download 3874

FirstAnalQuest Carmen Fox ryushare uploaded keep2share

FirstAnalQuest Carmen Fox

Katarinka – Russian Teen – Pack 45 clips ryushare uploaded keep2share

Katarinka – Russian Teen – Pack 45 clips

Teen Sex Porn Videos Free Nude Teens 224697 ryushare uploaded keep2share

Teen Sex Porn Videos Free Nude Teens 224697

Report broken links / Post a comment

You must be logged in to post a comment.



General
Complete name : D:[NubileFilms.com] Silvie Luca – Give And Take.mp4
Format : MPEG-4
Format profile : Base Media
Codec ID : isom
File size : 498 MiB
Duration : 10mn 55s
Overall bit rate mode : Variable
Overall bit rate : 6 365 Kbps
Writing application : Lavf55.16.102

Video
ID : 1
Format : AVC
Format/Info : Advanced Video Codec
Format profile : Main@L4.0
Format settings, CABAC : Yes
Format settings, ReFrames : 4 frames
Codec ID : avc1
Codec ID/Info : Advanced Video Coding
Duration : 10mn 55s
Bit rate : 6 244 Kbps
Width : 1 920 pixels
Height : 1 080 pixels
Display aspect ratio : 16:9
Frame rate mode : Constant
Frame rate : 23.976 fps
Color space : YUV
Chroma subsampling : 4:2:0
Bit depth : 8 bits
Scan type : Progressive
Bits/(Pixel*Frame) : 0.126
Stream size : 488 MiB (98%)
Writing library : x264 core 123 r2189 35cf912
Encoding settings : cabac=1 / ref=2 / deblock=1:-1:-1 / analyse=0x1:0x111 / me=umh / subme=8 / psy=1 / psy_rd=1.00:0.15 / mixed_ref=1 / me_range=16 / chroma_me=1 / trellis=1 / 8x8dct=0 / cqm=0 / deadzone=21,11 / fast_pskip=1 / chroma_qp_offset=-3 / threads=10 / sliced_threads=0 / nr=0 / decimate=1 / interlaced=0 / bluray_compat=0 / constrained_intra=0 / bframes=3 / b_pyramid=2 / b_adapt=2 / b_bias=0 / direct=3 / weightb=1 / open_gop=0 / weightp=0 / keyint=250 / keyint_min=23 / scenecut=40 / intra_refresh=0 / rc_lookahead=50 / rc=crf / mbtree=1 / crf=18.0 / qcomp=0.60 / qpmin=0 / qpmax=69 / qpstep=4 / ip_ratio=1.40 / aq=1:1.00
Language : English

Audio
ID : 2
Format : AAC
Format/Info : Advanced Audio Codec
Format profile : LC
Codec ID : 40
Duration : 10mn 55s
Duration_LastFrame : -9ms
Bit rate mode : Variable
Bit rate : 115 Kbps
Maximum bit rate : 196 Kbps
Channel(s) : 2 channels
Channel positions : Front: L R
Sampling rate : 44.1 KHz
Compression mode : Lossy
Stream size : 9.02 MiB (2%)
Language : English