Squirters Juice Bar Carla Cox

Nude Teens fucking hard 223931nxxx free hd videos dwondlod s

Posted in HD Porn, Pornstar, Sex Movies, Threesome | 18718 Views |


Rate this girl !!!




Squirters Juice Bar\r\n\r\nSquirters Juice Bar\r\n\r\nSquirters Juice Bar\r\n\r\nSquirters Juice Bar\r\n\r\n\r\nFile: sgs_carla_kiki_ap082013_720p_8000.mp4\r\nSize: 1938543851 bytes (1.81 GiB), duration: 00:30:37, avg.bitrate: 8442 kb/s\r\nAudio: aac, 48000 Hz, stereo, s16, 127 kb/s (und)\r\nVideo: h264, yuv420p, 1280×720, 7966 kb/s, 29.97 fps(r) (und)\r\n\r\n\r\n\r\n\r\n



DOWNLOAD

Keep2share.cc - Uploaded.net - Openload.co - Rapidu.net


http://k2s.cc/file/946c9ce7f4f43/SQUIRTERS_JUICE_BAR._carla_cox___kiki_minaj..mp4

https://openload.co/f/9ZuYGIcGUpU/SQUIRTERS_JUICE_BAR._carla_cox_kiki_minaj..mp4

http://uploaded.net/file/pf55lm5s/SQUIRTERS%20JUICE%20BAR.%20carla%20cox%20%20%20kiki%20minaj..mp4

https://rapidu.net/3618436729/SQUIUI-cacox.mp4


Premium here:
uploaded.net
keep2share.cc
rapidu.net.cc

Teens related to Squirters Juice Bar Carla Cox


Teen Porn XXX Tube 3791 ryushare uploaded keep2share

Teen Porn XXX Tube 3791

Tube Young Sex 3798 ryushare uploaded keep2share

Tube Young Sex 3798

First time Sexual Films 18 sex xxx 225796 ryushare uploaded keep2share

First time Sexual Films 18 sex xxx 225796

Molly – Deep and passionate anal ryushare uploaded keep2share

Molly – Deep and passionate anal

Teen 18 Porn XXX Clips Naked 3589 ryushare uploaded keep2share

Teen 18 Porn XXX Clips Naked 3589

Teenage Fuck Clips 4003 ryushare uploaded keep2share

Teenage Fuck Clips 4003

Alica – Quiet but deadly ryushare uploaded keep2share

Alica – Quiet but deadly

TeenBFF.com Maci Winslett & Alex Tanner – Posing for Cum ryushare uploaded keep2share

TeenBFF.com Maci Winslett & Alex Tanner – Posing for Cum

Teen Tits Tube, Young Girls Porn Videos 225965 ryushare uploaded keep2share

Teen Tits Tube, Young Girls Porn Videos 225965

daunloding sex xxx hd 226058 ryushare uploaded keep2share

daunloding sex xxx hd 226058

Teen porn xxx 224460 ryushare uploaded keep2share

Teen porn xxx 224460

Kissme Girl – Aidra Fox & Sasha ryushare uploaded keep2share

Kissme Girl – Aidra Fox & Sasha

HD Porn Videos 4503 ryushare uploaded keep2share

HD Porn Videos 4503

Yours Forever – Lisa ryushare uploaded keep2share

Yours Forever – Lisa

Young Virgin Pussy Teen Fuck Tube 224545 ryushare uploaded keep2share

Young Virgin Pussy Teen Fuck Tube 224545

Hd quality – Teen sex video 5300 ryushare uploaded keep2share

Hd quality – Teen sex video 5300

Hot download sex girls movies 5477 ryushare uploaded keep2share

Hot download sex girls movies 5477

Free Young Porn Videos XXX Teen Porn 224175 ryushare uploaded keep2share

Free Young Porn Videos XXX Teen Porn 224175

College Teen Sex 2615 ryushare uploaded keep2share

College Teen Sex 2615

College Teen Sex 225693 ryushare uploaded keep2share

College Teen Sex 225693

Rocco Siffredi Casting1080p ryushare uploaded keep2share

Rocco Siffredi Casting1080p

Wowporn Barbara Sweet & Beata HD ryushare uploaded keep2share

Wowporn Barbara Sweet & Beata HD

18 years girl xxx sex videos 2603 ryushare uploaded keep2share

18 years girl xxx sex videos 2603

Teen porn movies 1909 ryushare uploaded keep2share

Teen porn movies 1909

hdsex movea com 226516 ryushare uploaded keep2share

hdsex movea com 226516

Taissia A – Bed of Roses ryushare uploaded keep2share

Taissia A – Bed of Roses

High Definition Movies on HD 224800 ryushare uploaded keep2share

High Definition Movies on HD 224800

Girls sex art hd teens videos 5327 ryushare uploaded keep2share

Girls sex art hd teens videos 5327

Teenage Fuck Clips 5122 ryushare uploaded keep2share

Teenage Fuck Clips 5122

CastingCouch X Jayden Full HD ryushare uploaded keep2share

CastingCouch X Jayden Full HD

The best Teen sex 3727 ryushare uploaded keep2share

The best Teen sex 3727

HD Porn Videos 4330 ryushare uploaded keep2share

HD Porn Videos 4330

HD Porn Videos 1271 ryushare uploaded keep2share

HD Porn Videos 1271

Teen Sex Videos Tube Movies 224998 ryushare uploaded keep2share

Teen Sex Videos Tube Movies 224998

Hardcore Sex Hub 223889 ryushare uploaded keep2share

Hardcore Sex Hub 223889

Report broken links / Post a comment

You must be logged in to post a comment.



General\r\nComplete name : H:HD PORN DOWNLOADRYUSHAREUPLOADEDKEEP2SHARE.CC\sgs_carla_kiki_ap082013_720p_8000.mp4\r\nFormat : MPEG-4\r\nFormat profile : Base Media\r\nCodec ID : isom\r\nFile size : 1.81 GiB\r\nDuration : 30mn 37s\r\nOverall bit rate : 8 439 Kbps\r\nMovie name : Download from HDteenmania.com\r\nWriting application : Lavf55.1.100\r\nComment : Download from HDteenmania.com\r\n\r\nVideo\r\nID : 1\r\nFormat : AVC\r\nFormat/Info : Advanced Video Codec\r\nFormat profile : High@L4.1\r\nFormat settings, CABAC : Yes\r\nFormat settings, ReFrames : 5 frames\r\nCodec ID : avc1\r\nCodec ID/Info : Advanced Video Coding\r\nDuration : 30mn 37s\r\nBit rate : 8 000 Kbps\r\nWidth : 1 280 pixels\r\nHeight : 720 pixels\r\nDisplay aspect ratio : 16:9\r\nFrame rate mode : Constant\r\nFrame rate : 29.970 fps\r\nColor space : YUV\r\nChroma subsampling : 4:2:0\r\nBit depth : 8 bits\r\nScan type : Progressive\r\nBits/(Pixel*Frame) : 0.290\r\nStream size : 1.70 GiB (94%)\r\nWriting library : x264 core 130 r2274 c832fe9\r\nEncoding settings : cabac=1 / ref=5 / deblock=1:0:0 / analyse=0x3:0x113 / me=umh / subme=8 / psy=1 / psy_rd=1.00:0.00 / mixed_ref=1 / me_range=16 / chroma_me=1 / trellis=1 / 8x8dct=1 / cqm=0 / deadzone=21,11 / fast_pskip=1 / chroma_qp_offset=-2 / threads=36 / lookahead_threads=5 / sliced_threads=0 / nr=0 / decimate=1 / interlaced=0 / bluray_compat=0 / constrained_intra=0 / bframes=3 / b_pyramid=2 / b_adapt=2 / b_bias=0 / direct=3 / weightb=1 / open_gop=0 / weightp=2 / keyint=60 / keyint_min=6 / scenecut=40 / intra_refresh=0 / rc_lookahead=50 / rc=abr / mbtree=1 / bitrate=8000 / ratetol=1.0 / qcomp=0.60 / qpmin=0 / qpmax=69 / qpstep=4 / ip_ratio=1.40 / aq=1:1.00\r\nTagged date : UTC 2013-10-04 08:35:48\r\n\r\nAudio\r\nID : 2\r\nFormat : AAC\r\nFormat/Info : Advanced Audio Codec\r\nFormat profile : LC\r\nCodec ID : 40\r\nDuration : 30mn 37s\r\nDuration_LastFrame : 33ms\r\nBit rate mode : Constant\r\nBit rate : 128 Kbps\r\nChannel(s) : 2 channels\r\nChannel positions : Front: L R\r\nSampling rate : 48.0 KHz\r\nCompression mode : Lossy\r\nStream size : 28.0 MiB (2%)\r\nTagged date : UTC 2013-10-04 08:35:48