Stella Cox – No Panties

[FuckStudies.com] IrenJassie Gold – Hardcore Fucking

Posted in HD Porn, Pornstar, Sex Movies, Teen | 7942 Views |


Rate this girl !!!




[Nubiles-Porn.com] Stella Cox – No Panties

\r\n

cover

\r\n

1920x1080p / MP4 / 883.76 MB

\r\n

SCREENSHOTS:

\r\n

screens



DOWNLOAD

Keep2share.cc - Uploaded.net - Openload.co - Rapidu.net


http://fileom.com/ppzp0u0zetfq/St.e.lla_C.ox_-_No_Pa.nties_10.80.mp4.html
http://k2s.cc/file/63f0c27173df4/St.e.lla_C.ox_-_No_Pa.nties_10.80.mp4
http://ul.to/44xgjtve/St.e.lla%20C.ox%20-%20No%20Pa.nties%2010.80.mp4


Premium here:
uploaded.net
keep2share.cc
rapidu.net.cc


Teens related to Stella Cox – No Panties


Teen Sex Movies 223950 ryushare uploaded keep2share

Teen Sex Movies 223950

jaaz sex movis 226121 ryushare uploaded keep2share

jaaz sex movis 226121

Teenage Fuck Clips 1591 ryushare uploaded keep2share

Teenage Fuck Clips 1591

LegalPorno.com] Rebecca Black takes 3 cocks in ryushare uploaded keep2share

LegalPorno.com] Rebecca Black takes 3 cocks in

Free Porn Videos Xxx Movies Pussy Porn 3704 ryushare uploaded keep2share

Free Porn Videos Xxx Movies Pussy Porn 3704

8teen sex free movies com ryushare uploaded keep2share

8teen sex free movies com

Hot teen ryushare uploaded keep2share

Hot teen

Young Sex Movies 225490 ryushare uploaded keep2share

Young Sex Movies 225490

Teenage Fuck Clips 5122 ryushare uploaded keep2share

Teenage Fuck Clips 5122

HD Porn Videos 225943 ryushare uploaded keep2share

HD Porn Videos 225943

Teen xxx sex hd 223777 ryushare uploaded keep2share

Teen xxx sex hd 223777

Wow girls porn teens 3033 ryushare uploaded keep2share

Wow girls porn teens 3033

Hot download sex girls movies 5685 ryushare uploaded keep2share

Hot download sex girls movies 5685

xxx sexy moovi pchd download ryushare uploaded keep2share

xxx sexy moovi pchd download

Www hd xvideos download in 225992 ryushare uploaded keep2share

Www hd xvideos download in 225992

Hd quality – Teen sex video 3683 ryushare uploaded keep2share

Hd quality – Teen sex video 3683

PRONO SEX VIDEO ryushare uploaded keep2share

PRONO SEX VIDEO

K Three Teasing Tongues 5 – A ryushare uploaded keep2share

K Three Teasing Tongues 5 – A

HD Porn Videos 2135 ryushare uploaded keep2share

HD Porn Videos 2135

Beata Fucking in swimming pool ryushare uploaded keep2share

Beata Fucking in swimming pool

HD sex movies downloads 2841 ryushare uploaded keep2share

HD sex movies downloads 2841

Nude Teens fucking hard 2774 ryushare uploaded keep2share

Nude Teens fucking hard 2774

HD porn uploaded 4876 ryushare uploaded keep2share

HD porn uploaded 4876

Lilly – Hot pussy Fuck In An Armchair ryushare uploaded keep2share

Lilly – Hot pussy Fuck In An Armchair

www HD sex videoxxx com ryushare uploaded keep2share

www HD sex videoxxx com

21Naturals.com Beata Undine – Dreaming ryushare uploaded keep2share

21Naturals.com Beata Undine – Dreaming

ClubSeventeen.com SiteRip – Part 1 ryushare uploaded keep2share

ClubSeventeen.com SiteRip – Part 1

Good Teen Tube Sexy Young Naked Girls Movies 223698 ryushare uploaded keep2share

Good Teen Tube Sexy Young Naked Girls Movies 223698

Asian Amateur Video ryushare uploaded keep2share

Asian Amateur Video

Hd avi xxx sexy in ryushare uploaded keep2share

Hd avi xxx sexy in

Teen porn movies 224453 ryushare uploaded keep2share

Teen porn movies 224453

Young Sex Movies 4563 ryushare uploaded keep2share

Young Sex Movies 4563

Mia Manarote – Long-awaited ryushare uploaded keep2share

Mia Manarote – Long-awaited

xxx skymovi com ryushare uploaded keep2share

xxx skymovi com

Free High Quality Sex Movies 3862 ryushare uploaded keep2share

Free High Quality Sex Movies 3862

Report broken links / Post a comment

You must be logged in to post a comment.



General\r\nComplete name : D:[Nubiles-Porn.com] Stella Cox – No Panties.mp4\r\nFormat : MPEG-4\r\nFormat profile : Base Media\r\nCodec ID : isom\r\nFile size : 884 MiB\r\nDuration : 11mn 12s\r\nOverall bit rate : 11.0 Mbps\r\nMovie name : RARBG.COM - Nubiles-Porn.14.09.02.Stella.Cox.No.Panties.XXX.1080p.MP4-KTR\r\nWriting application : Lavf55.48.100\r\nComment : RARBG.COM - Nubiles-Porn.14.09.02.Stella.Cox.No.Panties.XXX.1080p.MP4-KTR\r\n\r\nVideo\r\nID : 1\r\nFormat : AVC\r\nFormat/Info : Advanced Video Codec\r\nFormat profile : Main@L4.2\r\nFormat settings, CABAC : Yes\r\nFormat settings, ReFrames : 4 frames\r\nCodec ID : avc1\r\nCodec ID/Info : Advanced Video Coding\r\nDuration : 11mn 12s\r\nBit rate : 10.9 Mbps\r\nWidth : 1 920 pixels\r\nHeight : 1 080 pixels\r\nDisplay aspect ratio : 16:9\r\nFrame rate mode : Constant\r\nFrame rate : 59.940 fps\r\nColor space : YUV\r\nChroma subsampling : 4:2:0\r\nBit depth : 8 bits\r\nScan type : Progressive\r\nBits/(Pixel*Frame) : 0.087\r\nStream size : 871 MiB (99%)\r\nWriting library : x264 core 142\r\nEncoding settings : cabac=1 / ref=2 / deblock=1:-1:-1 / analyse=0x1:0x111 / me=umh / subme=8 / psy=1 / psy_rd=1.00:0.15 / mixed_ref=1 / me_range=16 / chroma_me=1 / trellis=1 / 8x8dct=0 / cqm=0 / deadzone=21,11 / fast_pskip=1 / chroma_qp_offset=-3 / threads=24 / lookahead_threads=4 / sliced_threads=0 / nr=0 / decimate=1 / interlaced=0 / bluray_compat=0 / constrained_intra=0 / bframes=3 / b_pyramid=2 / b_adapt=2 / b_bias=0 / direct=3 / weightb=1 / open_gop=0 / weightp=0 / keyint=250 / keyint_min=25 / scenecut=40 / intra_refresh=0 / rc_lookahead=50 / rc=crf / mbtree=1 / crf=18.0 / qcomp=0.60 / qpmin=0 / qpmax=69 / qpstep=4 / ip_ratio=1.40 / aq=1:1.00\r\nLanguage : English\r\n\r\nAudio\r\nID : 2\r\nFormat : AAC\r\nFormat/Info : Advanced Audio Codec\r\nFormat profile : LC\r\nCodec ID : 40\r\nDuration : 11mn 12s\r\nDuration_LastFrame : 23ms\r\nBit rate mode : Constant\r\nBit rate : 151 Kbps\r\nChannel(s) : 2 channels\r\nChannel positions : Front: L R\r\nSampling rate : 44.1 KHz\r\nCompression mode : Lossy\r\nStream size : 12.1 MiB (1%)\r\nLanguage : English\r\n\r\n