Super hot teens fuck swim pool

Beautiful Teen Providing Ass Rimming To Her Boyfriend This TimeMuch Need Vacation X-Art

Posted in Amateur, HD Porn, Sex Movies, Teen | 13523 Views |


Rate this girl !!!


(26 raters, 95 scores, average: 3.65 out of 5, 73.08%)

Super hot teens fuck swim pool\r\nSuper hot teens fuck swim pool Link(1.12 Gb||31:13||1280*720||MP4) 16.jpeg\r\n\r\nSuper hot teens fuck swim pool\r\n\r\n Link(1.12 Gb||31:13||1280*720||MP4) \r\n\r\n \r\n\r\n \r\n\r\n 



DOWNLOAD

Keep2share.cc - Uploaded.net - Openload.co - Rapidu.net


http://ryushare.com/20d52fb1fc84/TMSJNYHNsy.rar
http://keep2share.cc/file/52dad84951643
http://ul.to/53l6ixpm


Premium here:
uploaded.net
keep2share.cc
rapidu.net.cc

Incoming search terms:

  • sexvideoshd net
  • superpronvideo
  • xxx supar movie hd avi


Tags: , , , , , , , , ,

Teens related to Super hot teens fuck swim pool


BRAZZERS sex hd videos download ryushare uploaded keep2share

BRAZZERS sex hd videos download

HD Sex World Videos High Definition Free Porn 2359 ryushare uploaded keep2share

HD Sex World Videos High Definition Free Porn 2359

www18sexivideo com ryushare uploaded keep2share

www18sexivideo com

High Definition Movies on HD 225588 ryushare uploaded keep2share

High Definition Movies on HD 225588

Tanned Fucking for money in the street ryushare uploaded keep2share

Tanned Fucking for money in the street

1280*720hd sex vídeo com ryushare uploaded keep2share

1280*720hd sex vídeo com

Free Teen Porn – Redhair teen XXX ryushare uploaded keep2share

Free Teen Porn – Redhair teen XXX

www hd sex videos in low mb 226069 ryushare uploaded keep2share

www hd sex videos in low mb 226069

Hot download sex girls movies 5685 ryushare uploaded keep2share

Hot download sex girls movies 5685

handjob porn mp4 226429 ryushare uploaded keep2share

handjob porn mp4 226429

Uploaded net porn XXX 224345 ryushare uploaded keep2share

Uploaded net porn XXX 224345

WMV HD HIGH porn 226134 ryushare uploaded keep2share

WMV HD HIGH porn 226134

HD Teens Sex Tube Videos XxX 225160 ryushare uploaded keep2share

HD Teens Sex Tube Videos XxX 225160

Wow porn hd downloads 224283 ryushare uploaded keep2share

Wow porn hd downloads 224283

Christina Snow – NubilesFilms – Join In ryushare uploaded keep2share

Christina Snow – NubilesFilms – Join In

Kira Queen ryushare uploaded keep2share

Kira Queen

Porn teen hd downloads 224517 ryushare uploaded keep2share

Porn teen hd downloads 224517

Girls do porn in HD 5406 ryushare uploaded keep2share

Girls do porn in HD 5406

Teen 18 Porn XXX Clips Naked 224373 ryushare uploaded keep2share

Teen 18 Porn XXX Clips Naked 224373

sex com hd9in 226365 ryushare uploaded keep2share

sex com hd9in 226365

Hardcore sex videos in the high definition quality 224715 ryushare uploaded keep2share

Hardcore sex videos in the high definition quality 224715

www 000-sexmovies 226286 ryushare uploaded keep2share

www 000-sexmovies 226286

Klara, Paloma – Let’s Come Together ryushare uploaded keep2share

Klara, Paloma – Let’s Come Together

HD1080 porno nude act movie 226709 ryushare uploaded keep2share

HD1080 porno nude act movie 226709

Hardcore Sex Hub 3916 ryushare uploaded keep2share

Hardcore Sex Hub 3916

sexHD videos mkv ryushare uploaded keep2share

sexHD videos mkv

Xxxxx hot ful hd bf movies ryushare uploaded keep2share

Xxxxx hot ful hd bf movies

8 Teen XXX – Teen Sex 224449 ryushare uploaded keep2share

8 Teen XXX – Teen Sex 224449

Teen Sex Videos Tube Movies 2090 ryushare uploaded keep2share

Teen Sex Videos Tube Movies 2090

teen tease hdv ryushare uploaded keep2share

teen tease hdv

First time Sexual Films 18 sex xxx 3226 ryushare uploaded keep2share

First time Sexual Films 18 sex xxx 3226

xxx sexy moovi pchd download ryushare uploaded keep2share

xxx sexy moovi pchd download

Porn party teen girls 224921 ryushare uploaded keep2share

Porn party teen girls 224921

Wow Porn Movies download) 225823 ryushare uploaded keep2share

Wow Porn Movies download) 225823

8 Teen XXX – Teen Sex 2973 ryushare uploaded keep2share

8 Teen XXX – Teen Sex 2973

Report broken links / Post a comment

You must be logged in to post a comment.



General\r\nComplete name : D:Super hot teens fuck swim pool HDTMSJNYHNsy.mp4\r\nFormat : MPEG-4\r\nFormat profile : Base Media / Version 2\r\nCodec ID : mp42\r\nFile size : 1.12 GiB\r\nDuration : 31mn 13s\r\nOverall bit rate mode : Variable\r\nOverall bit rate : 5 131 Kbps\r\nEncoded date : UTC 2013-10-08 03:54:25\r\nTagged date : UTC 2013-10-08 03:54:25\r\nWriting library : Apple QuickTime\r\n\r\nVideo\r\nID : 1\r\nFormat : AVC\r\nFormat/Info : Advanced Video Codec\r\nFormat profile : Main@L3.1\r\nFormat settings, CABAC : No\r\nFormat settings, ReFrames : 2 frames\r\nFormat settings, GOP : M=2, N=100\r\nCodec ID : avc1\r\nCodec ID/Info : Advanced Video Coding\r\nDuration : 31mn 13s\r\nBit rate : 4 998 Kbps\r\nWidth : 1 280 pixels\r\nHeight : 720 pixels\r\nDisplay aspect ratio : 16:9\r\nFrame rate mode : Constant\r\nFrame rate : 30.000 fps\r\nStandard : PAL\r\nColor space : YUV\r\nChroma subsampling : 4:2:0\r\nBit depth : 8 bits\r\nScan type : Progressive\r\nBits/(Pixel*Frame) : 0.181\r\nStream size : 1.09 GiB (97%)\r\nLanguage : English\r\nEncoded date : UTC 2013-10-08 03:54:25\r\nTagged date : UTC 2013-10-08 03:54:25\r\n\r\nAudio\r\nID : 2\r\nFormat : AAC\r\nFormat/Info : Advanced Audio Codec\r\nFormat profile : LC\r\nCodec ID : 40\r\nDuration : 31mn 13s\r\nBit rate mode : Variable\r\nBit rate : 128 Kbps\r\nMaximum bit rate : 136 Kbps\r\nChannel(s) : 2 channels\r\nChannel positions : Front: L R\r\nSampling rate : 44.1 KHz\r\nCompression mode : Lossy\r\nStream size : 28.6 MiB (2%)\r\nLanguage : English\r\nEncoded date : UTC 2013-10-08 03:54:25\r\nTagged date : UTC 2013-10-08 03:54:25\r\n\r\n