Sweet Teen Porn – Young Porn Videos 3539

HD Teens Sex Tube Videos XxX 3546Young XXX Tube Videos 3540

Posted in HD Porn | 6492 Views |


Rate this girl !!!


(21 raters, 71 scores, average: 3.38 out of 5, 67.62%)

 

 

Size: 719 MB | Duration: 00:31:54 | Quality: 1280×720 | Format: Wmv



DOWNLOAD

Keep2share.cc - Uploaded.net - Openload.co - Rapidu.net



Premium here:
uploaded.net
keep2share.cc
rapidu.net.cc

Incoming search terms:

  • fhd sex video download
  • maniaporn youngporn
  • pornyoungporn


Tags: ,

Teens related to Sweet Teen Porn – Young Porn Videos 3539


HQ Sex Movies Download 225936 ryushare uploaded keep2share

HQ Sex Movies Download 225936

Hardcore Sex Hub 224542 ryushare uploaded keep2share

Hardcore Sex Hub 224542

RealExGerlfriends.com Sammie Daniels – Heavenly Pussy ryushare uploaded keep2share

RealExGerlfriends.com Sammie Daniels – Heavenly Pussy

The best Teen sex 225923 ryushare uploaded keep2share

The best Teen sex 225923

Free Teen Porn Videos at Teen Sex Tube XXX 5283 ryushare uploaded keep2share

Free Teen Porn Videos at Teen Sex Tube XXX 5283

Xxx fuka in 226353 ryushare uploaded keep2share

Xxx fuka in 226353

xxx movies hd english ryushare uploaded keep2share

xxx movies hd english

Www Xxxsex video18 ryushare uploaded keep2share

Www Xxxsex video18

Teen Sex Porn Videos Free Nude Teens 224616 ryushare uploaded keep2share

Teen Sex Porn Videos Free Nude Teens 224616

Hot Teen Sex HD videos 223872 ryushare uploaded keep2share

Hot Teen Sex HD videos 223872

Teens in Porno young porn videos and free teen sex 224423 ryushare uploaded keep2share

Teens in Porno young porn videos and free teen sex 224423

pron pictures fucked 226288 ryushare uploaded keep2share

pron pictures fucked 226288

The best Teen sex 4297 ryushare uploaded keep2share

The best Teen sex 4297

Teens sex mania 5524 ryushare uploaded keep2share

Teens sex mania 5524

daunloding sex xxx hd 226058 ryushare uploaded keep2share

daunloding sex xxx hd 226058

HQ Sex Movies Download 5330 ryushare uploaded keep2share

HQ Sex Movies Download 5330

New sexy video pc hd ryushare uploaded keep2share

New sexy video pc hd

baby hd mp4 deflortioan sex 226670 ryushare uploaded keep2share

baby hd mp4 deflortioan sex 226670

K Daniela (Minimalist) 2014, Handjob, Blondes, 1080p ryushare uploaded keep2share

K Daniela (Minimalist) 2014, Handjob, Blondes, 1080p

Two Boys & One Girl – X-Art ryushare uploaded keep2share

Two Boys & One Girl – X-Art

8 Teen XXX – Teen Sex 224806 ryushare uploaded keep2share

8 Teen XXX – Teen Sex 224806

Teen xxx sex hd 224959 ryushare uploaded keep2share

Teen xxx sex hd 224959

Teen Porn XXX Tube 225246 ryushare uploaded keep2share

Teen Porn XXX Tube 225246

Paula Shy – AfterParty – Sex Art ryushare uploaded keep2share

Paula Shy – AfterParty – Sex Art

Watch Teen Sex Videos HD 1207 ryushare uploaded keep2share

Watch Teen Sex Videos HD 1207

www tens sex com 226725 ryushare uploaded keep2share

www tens sex com 226725

8 Teen XXX – Teen Sex 1751 ryushare uploaded keep2share

8 Teen XXX – Teen Sex 1751

Free High Quality Sex Movies 3731 ryushare uploaded keep2share

Free High Quality Sex Movies 3731

Fresh Teen Videos 2970 ryushare uploaded keep2share

Fresh Teen Videos 2970

Babes Giselle Leon 1080p ryushare uploaded keep2share

Babes Giselle Leon 1080p

Daisy, Jasmine – Boats n Hoes ryushare uploaded keep2share

Daisy, Jasmine – Boats n Hoes

Adult Hardcore XXX Sex Videos 224399 ryushare uploaded keep2share

Adult Hardcore XXX Sex Videos 224399

Www sex Full PcVideo ryushare uploaded keep2share

Www sex Full PcVideo

TrickyMasseur.com Raquel ryushare uploaded keep2share

TrickyMasseur.com Raquel

HD Porn Teen Sex Videos 225413 ryushare uploaded keep2share

HD Porn Teen Sex Videos 225413

Report broken links / Post a comment

You must be logged in to post a comment.



General
Complete name : D:hd teen mania porn babes ryushare keep2share uploaded easybytez fileomT.e.s.s.a_T.a.y.l.or.wmv
Format : Windows Media
File size : 720 MiB
Duration : 31mn 54s
Overall bit rate mode : Constant
Overall bit rate : 3 154 Kbps
Maximum Overall bit rate : 3 155 Kbps
Encoded date : UTC 2009-08-11 19:08:19.954

Video
ID : 2
Format : VC-1
Format profile : MP@HL
Codec ID : WMV3
Codec ID/Info : Windows Media Video 9
Codec ID/Hint : WMV3
Description of the codec : Windows Media Video 9 - Professional
Duration : 31mn 54s
Bit rate mode : Constant
Bit rate : 3 000 Kbps
Width : 1 280 pixels
Height : 720 pixels
Display aspect ratio : 16:9
Frame rate : 29.970 fps
Color space : YUV
Chroma subsampling : 4:2:0
Bit depth : 8 bits
Scan type : Progressive
Compression mode : Lossy
Bits/(Pixel*Frame) : 0.109
Stream size : 685 MiB (95%)

Audio
ID : 1
Format : WMA
Format version : Version 2
Codec ID : 161
Codec ID/Info : Windows Media Audio
Description of the codec : Windows Media Audio 9.2 - 128 kbps, 44 kHz, stereo 1-pass CBR
Duration : 31mn 54s
Bit rate mode : Constant
Bit rate : 128 Kbps
Channel(s) : 2 channels
Sampling rate : 44.1 KHz
Bit depth : 16 bits
Stream size : 29.2 MiB (4%)