Sweet Teen Porn – Young Porn Videos 3794

Adult Hardcore XXX Sex Videos 3795Teen Porn XXX Tube 3791

Posted in Amateur, HD Porn, Sex Movies, Teen | 10471 Views |


Rate this girl !!!


(31 raters, 127 scores, average: 4.10 out of 5, 81.94%)

cover

1920x1080p / MP4 / 838.32 MB

UPLOADED / RYUSHARE / FILEOM / KEEP2SHARE

 

SCREENSHOTS:

screens



DOWNLOAD

Keep2share.cc - Uploaded.net - Openload.co - Rapidu.net



Premium here:
uploaded.net
keep2share.cc
rapidu.net.cc

Incoming search terms:

  • www xxvidoeHD com
  • teen porn videos dl com


Tags: ,

Teens related to Sweet Teen Porn – Young Porn Videos 3794


Fresh Teen Videos 3763 ryushare uploaded keep2share

Fresh Teen Videos 3763

Teen Sex Movies Young Porn Tube Vids 224709 ryushare uploaded keep2share

Teen Sex Movies Young Porn Tube Vids 224709

Free High Quality Sex Movies 1698 ryushare uploaded keep2share

Free High Quality Sex Movies 1698

Hot download sex girls movies 5611 ryushare uploaded keep2share

Hot download sex girls movies 5611

Hardcore Sex Hub 3916 ryushare uploaded keep2share

Hardcore Sex Hub 3916

8 Teen XXX – Teen Sex 4481 ryushare uploaded keep2share

8 Teen XXX – Teen Sex 4481

Wow porn tube movies 5631 ryushare uploaded keep2share

Wow porn tube movies 5631

antartika sex hd ryushare uploaded keep2share

antartika sex hd

Kissme Girl – Aidra Fox & Sasha ryushare uploaded keep2share

Kissme Girl – Aidra Fox & Sasha

www fist timrs sex x videos com 226534 ryushare uploaded keep2share

www fist timrs sex x videos com 226534

Porn massage young brunette ryushare uploaded keep2share

Porn massage young brunette

Fresh Teen Videos 225259 ryushare uploaded keep2share

Fresh Teen Videos 225259

Hot download sex girls movies 225819 ryushare uploaded keep2share

Hot download sex girls movies 225819

Teens in Porno young porn videos and free teen sex 1763 ryushare uploaded keep2share

Teens in Porno young porn videos and free teen sex 1763

GirlsDoPorn E230 18 Years Old ryushare uploaded keep2share

GirlsDoPorn E230 18 Years Old

HD Sex World Videos High Definition Free Porn 225327 ryushare uploaded keep2share

HD Sex World Videos High Definition Free Porn 225327

x videos mobi hd ryushare uploaded keep2share

x videos mobi hd

sex short clips in high quality ryushare uploaded keep2share

sex short clips in high quality

Katya – Creampie-Angels ryushare uploaded keep2share

Katya – Creampie-Angels

Girls do porn in HD 224007 ryushare uploaded keep2share

Girls do porn in HD 224007

Good Teen Tube Sexy Young Naked Girls Movies 225053 ryushare uploaded keep2share

Good Teen Tube Sexy Young Naked Girls Movies 225053

NubileFilms.com Taylor Whyte – Finally Home ryushare uploaded keep2share

NubileFilms.com Taylor Whyte – Finally Home

Teen Sex Movies 1891 ryushare uploaded keep2share

Teen Sex Movies 1891

Paula Shy – AfterParty – Sex Art ryushare uploaded keep2share

Paula Shy – AfterParty – Sex Art

Free High Quality Sex Movies 1175 ryushare uploaded keep2share

Free High Quality Sex Movies 1175

Hardcore sex videos in the high definition quality 225432 ryushare uploaded keep2share

Hardcore sex videos in the high definition quality 225432

Sweet Teen Porn – Young Porn Videos 224239 ryushare uploaded keep2share

Sweet Teen Porn – Young Porn Videos 224239

First time Sexual Films 18 sex xxx 3607 ryushare uploaded keep2share

First time Sexual Films 18 sex xxx 3607

xvideos hd porn videos DOWNLOAD ryushare uploaded keep2share

xvideos hd porn videos DOWNLOAD

young virgin sex mp4 ryushare uploaded keep2share

young virgin sex mp4

Russian Girls Cumshot Compilation ryushare uploaded keep2share

Russian Girls Cumshot Compilation

Good Teen Tube Sexy Young Naked Girls Movies 223698 ryushare uploaded keep2share

Good Teen Tube Sexy Young Naked Girls Movies 223698

hd18sex x videos com ryushare uploaded keep2share

hd18sex x videos com

Teenage Fuck Clips 3405 ryushare uploaded keep2share

Teenage Fuck Clips 3405

Teens in Porno young porn videos and free teen sex 2151 ryushare uploaded keep2share

Teens in Porno young porn videos and free teen sex 2151

Report broken links / Post a comment

You must be logged in to post a comment.



General
Complete name : D:hd pornstars teens ryushare.com uploaded.net keep2share.cc fileom.com streamcloud.eu allmyvideos.net ul.to download porn movies clips
Taking_A_Break_HD1080.mp4
Format : MPEG-4
Format profile : Base Media
Codec ID : isom
File size : 838 MiB
Duration : 20mn 26s
Overall bit rate mode : Variable
Overall bit rate : 5 732 Kbps
Encoded date : UTC 1970-01-01 00:00:00
Tagged date : UTC 1970-01-01 00:00:00
Writing application : Lavf52.64.2

Video
ID : 1
Format : AVC
Format/Info : Advanced Video Codec
Format profile : High@L4.0
Format settings, CABAC : Yes
Format settings, ReFrames : 2 frames
Codec ID : avc1
Codec ID/Info : Advanced Video Coding
Duration : 20mn 26s
Bit rate : 5 631 Kbps
Width : 1 920 pixels
Height : 1 080 pixels
Display aspect ratio : 16:9
Frame rate mode : Constant
Frame rate : 29.970 fps
Color space : YUV
Chroma subsampling : 4:2:0
Bit depth : 8 bits
Scan type : Progressive
Bits/(Pixel*Frame) : 0.091
Stream size : 823 MiB (98%)
Writing library : x264 core 102 r1666 d058f37
Encoding settings : cabac=1 / ref=2 / deblock=1:0:0 / analyse=0x3:0x113 / me=hex / subme=6 / psy=1 / psy_rd=1.00:0.00 / mixed_ref=0 / me_range=16 / chroma_me=1 / trellis=0 / 8x8dct=1 / cqm=0 / deadzone=21,11 / fast_pskip=1 / chroma_qp_offset=-2 / threads=24 / sliced_threads=0 / nr=0 / decimate=1 / interlaced=0 / constrained_intra=0 / bframes=3 / b_pyramid=0 / b_adapt=1 / b_bias=0 / direct=3 / weightb=1 / open_gop=0 / weightp=2 / keyint=250 / keyint_min=25 / scenecut=40 / intra_refresh=0 / rc_lookahead=40 / rc=crf / mbtree=1 / crf=20.0 / qcomp=0.60 / qpmin=10 / qpmax=51 / qpstep=4 / ip_ratio=1.41 / aq=1:1.00
Encoded date : UTC 1970-01-01 00:00:00
Tagged date : UTC 1970-01-01 00:00:00

Audio
ID : 2
Format : AAC
Format/Info : Advanced Audio Codec
Format profile : LC
Codec ID : 40
Duration : 20mn 26s
Bit rate mode : Variable
Bit rate : 96.0 Kbps
Channel(s) : 2 channels
Channel positions : Front: L R
Sampling rate : 44.1 KHz
Compression mode : Lossy
Stream size : 14.1 MiB (2%)
Encoded date : UTC 1970-01-01 00:00:00
Tagged date : UTC 1970-01-01 00:00:00


hd pornstars teens ryushare.com uploaded.net keep2share.cc fileom.com streamcloud.eu allmyvideos.net ul.to download porn movies clips

UPLOADED / RYUSHARE / FILEOM / KEEP2SHARE