Taissia Shanti – Hot and Steamy

Amarna Miller & Juan Lucho – Que Es La PasionVeronika – Awesome sex with hot teeny

Posted in HD Porn, Pornstar, Sex Movies, Teen | 11356 Views |


Rate this girl !!!


(9 raters, 35 scores, average: 3.89 out of 5, 77.78%)

[EuroTeenErotica.com] Taissia Shanti – Hot and Steamy

cover

1920x1080p / MP4 / 1.29 GB

SCREENSHOTS:

screens



DOWNLOAD

Keep2share.cc - Uploaded.net - Openload.co - Rapidu.net



Premium here:
uploaded.net
keep2share.cc
rapidu.net.cc

Incoming search terms:

  • santi hot movi hd dwonlod
  • tassia jim slip
  • tassia santi
  • Tassia Shanti HD


Teens related to Taissia Shanti – Hot and Steamy


X-Art – Addison – No Turning Back ryushare uploaded keep2share

X-Art – Addison – No Turning Back

Hd quality – Teen sex video 4257 ryushare uploaded keep2share

Hd quality – Teen sex video 4257

Gina Gerson – Date By The Pool ryushare uploaded keep2share

Gina Gerson – Date By The Pool

Free High Quality Sex Movies 4274 ryushare uploaded keep2share

Free High Quality Sex Movies 4274

download porn in mkv format free 226124 ryushare uploaded keep2share

download porn in mkv format free 226124

HD Teen Sex Tube 2585 ryushare uploaded keep2share

HD Teen Sex Tube 2585

www hdbrazzers vedios download ryushare uploaded keep2share

www hdbrazzers vedios download

Watch Teen Sex Videos HD 2674 ryushare uploaded keep2share

Watch Teen Sex Videos HD 2674

Linda S – Making Up For Lost Time ryushare uploaded keep2share

Linda S – Making Up For Lost Time

Young 720p hd porn 4567 ryushare uploaded keep2share

Young 720p hd porn 4567

hd porn movi downlod 226138 ryushare uploaded keep2share

hd porn movi downlod 226138

sexs 18 hd indir 226449 ryushare uploaded keep2share

sexs 18 hd indir 226449

Tube Young Sex 1406 ryushare uploaded keep2share

Tube Young Sex 1406

High Definition Movies on HD Teen Porn XXX Tube 225706 ryushare uploaded keep2share

High Definition Movies on HD Teen Porn XXX Tube 225706

Hot download sex girls movies 5611 ryushare uploaded keep2share

Hot download sex girls movies 5611

First time Sexual Films 18 sex xxx 1966 ryushare uploaded keep2share

First time Sexual Films 18 sex xxx 1966

fuck from behind 226023 ryushare uploaded keep2share

fuck from behind 226023

xxx hd com yang ryushare uploaded keep2share

xxx hd com yang

Young xxx 224554 ryushare uploaded keep2share

Young xxx 224554

nubilefilms com/youporn december 2014 226042 ryushare uploaded keep2share

nubilefilms com/youporn december 2014 226042

Teen porn movies 3390 ryushare uploaded keep2share

Teen porn movies 3390

Porno movies young teens lesbian 5372 ryushare uploaded keep2share

Porno movies young teens lesbian 5372

First time Sexual Films 18 sex xxx 4718 ryushare uploaded keep2share

First time Sexual Films 18 sex xxx 4718

Dani Daniels HD Hot Teen ryushare uploaded keep2share

Dani Daniels HD Hot Teen

Nude Teens fucking hard 223878 ryushare uploaded keep2share

Nude Teens fucking hard 223878

Watch Teen Sex Videos HD 4934 ryushare uploaded keep2share

Watch Teen Sex Videos HD 4934

iglish porn sexi 226443 ryushare uploaded keep2share

iglish porn sexi 226443

Wow girls hd porn teens 225278 ryushare uploaded keep2share

Wow girls hd porn teens 225278

free download sovjetmassage com 226506 ryushare uploaded keep2share

free download sovjetmassage com 226506

Free High Quality Sex Movies 225182 ryushare uploaded keep2share

Free High Quality Sex Movies 225182

Tube xxx 224727 ryushare uploaded keep2share

Tube xxx 224727

Young legal porn clips 3535 ryushare uploaded keep2share

Young legal porn clips 3535

Teen porn movies 224601 ryushare uploaded keep2share

Teen porn movies 224601

hd vergin porn star image 226196 ryushare uploaded keep2share

hd vergin porn star image 226196

Teen Sex Movies Young Porn Tube Vids 5068 ryushare uploaded keep2share

Teen Sex Movies Young Porn Tube Vids 5068

Report broken links / Post a comment

You must be logged in to post a comment.



General
Complete name : D:[EuroTeenErotica.com] Taissia Shanti – Hot and Steamy.mp4
Format : MPEG-4
Format profile : Base Media / Version 2
Codec ID : mp42
File size : 1.29 GiB
Duration : 22mn 33s
Overall bit rate mode : Variable
Overall bit rate : 8 188 Kbps
Encoded date : UTC 2014-08-21 11:05:07
Tagged date : UTC 2014-08-21 11:05:07
©TIM : 00:00:00:00
©TSC : 30000
©TSZ : 1001

Video
ID : 1
Format : AVC
Format/Info : Advanced Video Codec
Format profile : High@L4.0
Format settings, CABAC : Yes
Format settings, ReFrames : 3 frames
Format settings, GOP : M=3, N=29
Codec ID : avc1
Codec ID/Info : Advanced Video Coding
Duration : 22mn 33s
Bit rate mode : Variable
Bit rate : 8 000 Kbps
Width : 1 920 pixels
Height : 1 080 pixels
Display aspect ratio : 16:9
Frame rate mode : Constant
Frame rate : 29.970 fps
Standard : NTSC
Color space : YUV
Chroma subsampling : 4:2:0
Bit depth : 8 bits
Scan type : Progressive
Bits/(Pixel*Frame) : 0.129
Stream size : 1.26 GiB (98%)
Language : English
Encoded date : UTC 2014-08-21 11:05:07
Tagged date : UTC 2014-08-21 11:05:07
Color primaries : BT.709
Transfer characteristics : BT.709
Matrix coefficients : BT.709

Audio
ID : 2
Format : AAC
Format/Info : Advanced Audio Codec
Format profile : LC
Codec ID : 40
Duration : 22mn 33s
Source duration : 22mn 33s
Bit rate mode : Variable
Bit rate : 192 Kbps
Maximum bit rate : 280 Kbps
Channel(s) : 2 channels
Channel positions : Front: L R
Sampling rate : 48.0 KHz
Compression mode : Lossy
Stream size : 30.6 MiB (2%)
Source stream size : 30.6 MiB (2%)
Language : English
Encoded date : UTC 2014-08-21 11:05:07
Tagged date : UTC 2014-08-21 11:05:07