Teen 18 Porn XXX Clips Naked 3747

Hd young videos 3757Hot hd teen sex videos 3748

Posted in Amateur, HD Porn, Sex Movies, Teen | 71900 Views |


Rate this girl !!!




\r\n\r\n



DOWNLOAD

Keep2share.cc - Uploaded.net - Openload.co - Rapidu.net


http://fileom.com/gude26v72ong/MZ.NGSns.mp4.html
http://ul.to/4qjnlqc4/MZ.NGSns.mp4
http://k2s.cc/file/ab04ed5d49da2/MZ.NGSns.mp4



Premium here:
uploaded.net
keep2share.cc
rapidu.net.cc


Teens related to Teen 18 Porn XXX Clips Naked 3747


TrickyMasseur.com Isabeli ryushare uploaded keep2share

TrickyMasseur.com Isabeli

College Teen Sex 1987 ryushare uploaded keep2share

College Teen Sex 1987

Amateur Teen Sex 5465 ryushare uploaded keep2share

Amateur Teen Sex 5465

Katie Jordin – Morning Affair ryushare uploaded keep2share

Katie Jordin – Morning Affair

HD Sex World Videos High Definition Free Porn 224629 ryushare uploaded keep2share

HD Sex World Videos High Definition Free Porn 224629

Hot teen ryushare uploaded keep2share

Hot teen

full hd 1020 ponr 226530 ryushare uploaded keep2share

full hd 1020 ponr 226530

Teen Porn XXX Tube 224141 ryushare uploaded keep2share

Teen Porn XXX Tube 224141

Porn HQ Movei free downlode ryushare uploaded keep2share

Porn HQ Movei free downlode

HD Porn Teen Sex Videos 2979 ryushare uploaded keep2share

HD Porn Teen Sex Videos 2979

Young Sex Movies 3635 ryushare uploaded keep2share

Young Sex Movies 3635

Handjob from cute amateur wife in hot amateur porn 3 ryushare uploaded keep2share

Handjob from cute amateur wife in hot amateur porn 3

HD Teens Sex Tube Videos XxX 223808 ryushare uploaded keep2share

HD Teens Sex Tube Videos XxX 223808

Watch Teen Sex Videos HD 2205 ryushare uploaded keep2share

Watch Teen Sex Videos HD 2205

Pretty Little Treasure – BTS ryushare uploaded keep2share

Pretty Little Treasure – BTS

High Definition Movies on HD 1766 ryushare uploaded keep2share

High Definition Movies on HD 1766

Hot Teen Sex 3744 ryushare uploaded keep2share

Hot Teen Sex 3744

Free Teen Porn Videos at Teen Sex Tube XXX 3477 ryushare uploaded keep2share

Free Teen Porn Videos at Teen Sex Tube XXX 3477

Sex Teens porn movies 4663 ryushare uploaded keep2share

Sex Teens porn movies 4663

HD Sex World Videos High Definition Free Porn 225696 ryushare uploaded keep2share

HD Sex World Videos High Definition Free Porn 225696

Hot sex girls movies download 3874 ryushare uploaded keep2share

Hot sex girls movies download 3874

Yes Xxx Long Videos High Difinition Porn Movies 226690 ryushare uploaded keep2share

Yes Xxx Long Videos High Difinition Porn Movies 226690

hd hq xxx porn videos dawonlod 226399 ryushare uploaded keep2share

hd hq xxx porn videos dawonlod 226399

www xxxx video donlood hd 226672 ryushare uploaded keep2share

www xxxx video donlood hd 226672

www 18porn com/hot hd video 226736 ryushare uploaded keep2share

www 18porn com/hot hd video 226736

Nubiles – sexual intercourse ryushare uploaded keep2share

Nubiles – sexual intercourse

Tracy Smile – Soldier ryushare uploaded keep2share

Tracy Smile – Soldier

Uploaded net porn XXX 224151 ryushare uploaded keep2share

Uploaded net porn XXX 224151

NubileFilms.com Kacy Lane – Sexual Tension ryushare uploaded keep2share

NubileFilms.com Kacy Lane – Sexual Tension

fucking sex hd download 226750 ryushare uploaded keep2share

fucking sex hd download 226750

Teen Tits Tube, Young Girls Porn Videos 224467 ryushare uploaded keep2share

Teen Tits Tube, Young Girls Porn Videos 224467

Hot download sex girls movies 5611 ryushare uploaded keep2share

Hot download sex girls movies 5611

sexs 18 hd indir 226449 ryushare uploaded keep2share

sexs 18 hd indir 226449

HD Porn Teen Sex Videos 4268 ryushare uploaded keep2share

HD Porn Teen Sex Videos 4268

www hd teen movie download com 226210 ryushare uploaded keep2share

www hd teen movie download com 226210

Report broken links / Post a comment

You must be logged in to post a comment.



General\r\nComplete name : D:hd pornstars teens ryushare.com uploaded.net keep2share.cc fileom.com streamcloud.eu allmyvideos.net ul.to download porn movies clips MZ.NGSns.mp4\r\nFormat : MPEG-4\r\nFormat profile : Base Media / Version 2\r\nCodec ID : mp42\r\nFile size : 2.11 GiB\r\nDuration : 29mn 38s\r\nOverall bit rate mode : Variable\r\nOverall bit rate : 10.2 Mbps\r\nEncoded date : UTC 2013-09-25 20:08:13\r\nTagged date : UTC 2013-09-25 20:08:13\r\nWriting library : Apple QuickTime\r\n\r\nVideo\r\nID : 1\r\nFormat : AVC\r\nFormat/Info : Advanced Video Codec\r\nFormat profile : High@L4.0\r\nFormat settings, CABAC : No\r\nFormat settings, ReFrames : 3 frames\r\nCodec ID : avc1\r\nCodec ID/Info : Advanced Video Coding\r\nDuration : 29mn 38s\r\nSource duration : 29mn 38s\r\nBit rate mode : Variable\r\nBit rate : 9 594 Kbps\r\nMaximum bit rate : 10.0 Mbps\r\nWidth : 1 920 pixels\r\nHeight : 1 080 pixels\r\nDisplay aspect ratio : 16:9\r\nFrame rate mode : Constant\r\nFrame rate : 29.970 fps\r\nStandard : Component\r\nColor space : YUV\r\nChroma subsampling : 4:2:0\r\nBit depth : 8 bits\r\nScan type : Progressive\r\nBits/(Pixel*Frame) : 0.154\r\nStream size : 1.99 GiB (94%)\r\nSource stream size : 2.07 GiB (98%)\r\nEncoded date : UTC 2013-09-25 20:08:13\r\nTagged date : UTC 2013-09-24 20:08:54\r\n\r\nAudio\r\nID : 2\r\nFormat : AAC\r\nFormat/Info : Advanced Audio Codec\r\nFormat profile : LC\r\nCodec ID : 40\r\nDuration : 29mn 38s\r\nBit rate mode : Variable\r\nBit rate : 192 Kbps\r\nMaximum bit rate : 199 Kbps\r\nChannel(s) : 2 channels\r\nChannel positions : Front: L R\r\nSampling rate : 48.0 KHz\r\nCompression mode : Lossy\r\nStream size : 40.7 MiB (2%)\r\nEncoded date : UTC 2013-09-25 20:08:13\r\nTagged date : UTC 2013-09-24 20:08:54\r\n\r\nhd pornstars teens ryushare.com uploaded.net keep2share.cc fileom.com streamcloud.eu allmyvideos.net ul.to download porn movies clips