Teen porn movies 1460

Teen Sex Videos Tube Movies 1466HD Porn Video 1455

Posted in Amateur, HD Porn, Sex Movies, Teen | 5185 Views |


Rate this girl !!!


(14 raters, 42 scores, average: 3.00 out of 5, 60%)

\r\n\r\n\r\nhttp://img102.imagetwist.com/i/05215/5a1l1b61vmdh.jpeg\r\n\r\n Link(764 Mb||17:23||640/480||WMV)



DOWNLOAD

Keep2share.cc - Uploaded.net - Openload.co - Rapidu.net


http://keep2share.cc/file/36f6c413cf1ef
http://ryushare.com/qatvo18j24m4/TNSRYBnd.rar
http://ul.to/42k5h3is


Premium here:
uploaded.net
keep2share.cc
rapidu.net.cc


Teens related to Teen porn movies 1460


Teenage Fuck Clips 4687 ryushare uploaded keep2share

Teenage Fuck Clips 4687

Porn teen hd downloads 224517 ryushare uploaded keep2share

Porn teen hd downloads 224517

Jessica Rayne – Jerk Off Instruction – Blowjob ryushare uploaded keep2share

Jessica Rayne – Jerk Off Instruction – Blowjob

xxx hd first time sex pic ryushare uploaded keep2share

xxx hd first time sex pic

Sweet Teen Porn – Young Porn Videos 224239 ryushare uploaded keep2share

Sweet Teen Porn – Young Porn Videos 224239

Couple of angels ryushare uploaded keep2share

Couple of angels

Hot hd teen sex videos 4668 ryushare uploaded keep2share

Hot hd teen sex videos 4668

Teenage Fuck Clips 2806 ryushare uploaded keep2share

Teenage Fuck Clips 2806

JoyMii.com – Ivy, Fuck Me ryushare uploaded keep2share

JoyMii.com – Ivy, Fuck Me

Young Sex Movies 4459 ryushare uploaded keep2share

Young Sex Movies 4459

Young XXX Tube Videos 3564 ryushare uploaded keep2share

Young XXX Tube Videos 3564

Innocent Young Blonde Gets Fucked For The First Time on Cam ryushare uploaded keep2share

Innocent Young Blonde Gets Fucked For The First Time on Cam

Sweet Teen Porn – Young Porn Videos 1409 ryushare uploaded keep2share

Sweet Teen Porn – Young Porn Videos 1409

WMV HD HIGH porn 226134 ryushare uploaded keep2share

WMV HD HIGH porn 226134

Tube Young Sex 5310 ryushare uploaded keep2share

Tube Young Sex 5310

Teen Sex Movies Young Porn Tube Vids 2930 ryushare uploaded keep2share

Teen Sex Movies Young Porn Tube Vids 2930

Free Young Porn Videos XXX Teen Porn 223975 ryushare uploaded keep2share

Free Young Porn Videos XXX Teen Porn 223975

Hot Teen Sex 224463 ryushare uploaded keep2share

Hot Teen Sex 224463

sex videos of 4 MB to download 226246 ryushare uploaded keep2share

sex videos of 4 MB to download 226246

HD Teens Sex Tube Videos XxX 2706 ryushare uploaded keep2share

HD Teens Sex Tube Videos XxX 2706

MyDirtySecret – All Sex, Amateur, Creampie, 720p ryushare uploaded keep2share

MyDirtySecret – All Sex, Amateur, Creampie, 720p

Free High Quality Sex Movies 1698 ryushare uploaded keep2share

Free High Quality Sex Movies 1698

Porn party teen girls 225425 ryushare uploaded keep2share

Porn party teen girls 225425

Hardcore Sex Hub 223823 ryushare uploaded keep2share

Hardcore Sex Hub 223823

pronster name sex video xxx ryushare uploaded keep2share

pronster name sex video xxx

College Teen Sex 223710 ryushare uploaded keep2share

College Teen Sex 223710

Hd young videos 3878 ryushare uploaded keep2share

Hd young videos 3878

Teen Sex Movies 224292 ryushare uploaded keep2share

Teen Sex Movies 224292

www Short hd sexvideos Com ryushare uploaded keep2share

www Short hd sexvideos Com

world sex pink com 226496 ryushare uploaded keep2share

world sex pink com 226496

Teen Porn XXX Tube 224426 ryushare uploaded keep2share

Teen Porn XXX Tube 224426

Teen Tits Tube, Young Girls Porn Videos 224467 ryushare uploaded keep2share

Teen Tits Tube, Young Girls Porn Videos 224467

Wow girls downloads hd 224848 ryushare uploaded keep2share

Wow girls downloads hd 224848

Hot Teen Sex HD videos 3863 ryushare uploaded keep2share

Hot Teen Sex HD videos 3863

Porn teen hd downloads 225845 ryushare uploaded keep2share

Porn teen hd downloads 225845

Report broken links / Post a comment

You must be logged in to post a comment.



General\r\nComplete name : D:HD Teens Download Porn Sex clips movies Tube.xxxTNSRYBndTNSRYBnd.wmv\r\nFormat : Windows Media\r\nFile size : 764 MiB\r\nDuration : 17mn 23s\r\nOverall bit rate mode : Constant\r\nOverall bit rate : 6 143 Kbps\r\nMaximum Overall bit rate : 6 435 Kbps\r\nEncoded date : UTC 2011-11-10 17:59:27.260\r\n\r\nVideo\r\nID : 2\r\nFormat : VC-1\r\nFormat profile : MP@ML\r\nCodec ID : WMV3\r\nCodec ID/Info : Windows Media Video 9\r\nCodec ID/Hint : WMV3\r\nDescription of the codec : Windows Media Video 9 - Professional\r\nDuration : 17mn 23s\r\nBit rate mode : Constant\r\nBit rate : 6 144 Kbps\r\nWidth : 640 pixels\r\nHeight : 480 pixels\r\nDisplay aspect ratio : 4:3\r\nFrame rate : 25.000 fps\r\nColor space : YUV\r\nChroma subsampling : 4:2:0\r\nBit depth : 8 bits\r\nScan type : Progressive\r\nCompression mode : Lossy\r\nBits/(Pixel*Frame) : 0.800\r\nStream size : 764 MiB\r\nLanguage : Russian\r\nNumberOfFrames : 26066\r\n\r\nAudio\r\nID : 1\r\nFormat : WMA\r\nFormat version : Version 2\r\nCodec ID : 161\r\nCodec ID/Info : Windows Media Audio\r\nDescription of the codec : Windows Media Audio 9.2 - 256 kbps, 44 kHz, stereo 1-pass CBR\r\nDuration : 17mn 23s\r\nBit rate mode : Constant\r\nBit rate : 256 Kbps\r\nChannel(s) : 2 channels\r\nSampling rate : 44.1 KHz\r\nBit depth : 16 bits\r\nStream size : 31.8 MiB (4%)\r\nLanguage : Russian\r\nNumberOfFrames : 2810\r\n\r\n\r\n