Teen porn movies 4620

Malena Morgan - I Don't Sing In The ShowerNude Teens fucking hard 2189

Posted in HD Porn, Pornstar, Sex Movies, Teen, Threesome | 8747 Views |


Rate this girl !!!




\r\n\r\n\r\n\r\n4.jpg\r\n\r\nLink(533 Mb||19:26||1280*720||MP4)



DOWNLOAD

Keep2share.cc - Uploaded.net - Openload.co - Rapidu.net


http://fileom.com/8f792hj1ku9c/B.R.ZFKSmr.mp4.html
http://k2s.cc/file/e138f04fde9c9/B.R.ZFKSmr.mp4
http://ryushare.com/wawzlii8s5hd/B.R.ZFKSmr.mp4
http://ul.to/ptkeau1q/B.R.ZFKSmr.rar


Premium here:
uploaded.net
keep2share.cc
rapidu.net.cc


Teens related to Teen porn movies 4620


Teen Sex Movies Young Porn Tube Vids 224048 ryushare uploaded keep2share

Teen Sex Movies Young Porn Tube Vids 224048

caprice videos xxx ryushare uploaded keep2share

caprice videos xxx

Evening at home with brunette ryushare uploaded keep2share

Evening at home with brunette

Free Porn Videos Xxx Movies Pussy Porn 5286 ryushare uploaded keep2share

Free Porn Videos Xxx Movies Pussy Porn 5286

Gianna – Real Blonde Love Doll Screws Her BF ryushare uploaded keep2share

Gianna – Real Blonde Love Doll Screws Her BF

// hq720p porn com 226758 ryushare uploaded keep2share

// hq720p porn com 226758

Daisy, Jasmine – Boats n Hoes ryushare uploaded keep2share

Daisy, Jasmine – Boats n Hoes

Movies Young legal porn 225865 ryushare uploaded keep2share

Movies Young legal porn 225865

Beata Undine – cumshot compilation ryushare uploaded keep2share

Beata Undine – cumshot compilation

HD Sex World Videos High Definition Free Porn 4589 ryushare uploaded keep2share

HD Sex World Videos High Definition Free Porn 4589

Teen porn movies 2976 ryushare uploaded keep2share

Teen porn movies 2976

Hot Teen Sex 1274 ryushare uploaded keep2share

Hot Teen Sex 1274

Wow Porn Movies download) 225823 ryushare uploaded keep2share

Wow Porn Movies download) 225823

[WowPorn.com] Feona – Humans Needs. R E D ryushare uploaded keep2share

[WowPorn.com] Feona – Humans Needs. R E D

Clubseventeen 507 Mb 226566 ryushare uploaded keep2share

Clubseventeen 507 Mb 226566

daunloding sex xxx hd 226058 ryushare uploaded keep2share

daunloding sex xxx hd 226058

download pc porno movie ryushare uploaded keep2share

download pc porno movie

Lily Love – Meditating Beauty ryushare uploaded keep2share

Lily Love – Meditating Beauty

X-Art – Addison – No Turning Back ryushare uploaded keep2share

X-Art – Addison – No Turning Back

Teen Sex Videos Tube Movies 225360 ryushare uploaded keep2share

Teen Sex Videos Tube Movies 225360

NubileFilms.com Karol Lilien – Sounds Of Passion ryushare uploaded keep2share

NubileFilms.com Karol Lilien – Sounds Of Passion

Teen Sex Movies 223950 ryushare uploaded keep2share

Teen Sex Movies 223950

xxxhqvideo dld ryushare uploaded keep2share

xxxhqvideo dld

21Naturals.com Ivana Sugar – Urges ryushare uploaded keep2share

21Naturals.com Ivana Sugar – Urges

Wow porn hd downloads 225065 ryushare uploaded keep2share

Wow porn hd downloads 225065

Hd young videos 1610 ryushare uploaded keep2share

Hd young videos 1610

Kail (AKA: Kail, Kortny, Sandy) ryushare uploaded keep2share

Kail (AKA: Kail, Kortny, Sandy)

Tube Young Sex 5310 ryushare uploaded keep2share

Tube Young Sex 5310

Teen Porn XXX Tube 3723 ryushare uploaded keep2share

Teen Porn XXX Tube 3723

College Teen Sex 2344 ryushare uploaded keep2share

College Teen Sex 2344

very low size hd porn videos ryushare uploaded keep2share

very low size hd porn videos

21Naturals.com Kiara Lord – Strings of passion ryushare uploaded keep2share

21Naturals.com Kiara Lord – Strings of passion

Watch Teen Sex Videos HD 4934 ryushare uploaded keep2share

Watch Teen Sex Videos HD 4934

Porn teen hd downloads 224965 ryushare uploaded keep2share

Porn teen hd downloads 224965

21Naturals.com Michelle Moore – Blindfolded ryushare uploaded keep2share

21Naturals.com Michelle Moore – Blindfolded

Report broken links / Post a comment

You must be logged in to post a comment.



General\r\nComplete name : D:Teen porn movies hd download free movies clips tube.mp4\r\nFormat : MPEG-4\r\nFormat profile : Base Media\r\nCodec ID : isom\r\nFile size : 533 MiB\r\nDuration : 19mn 26s\r\nOverall bit rate mode : Variable\r\nOverall bit rate : 3 835 Kbps\r\nWriting application : Lavf55.33.101\r\n\r\nVideo\r\nID : 1\r\nFormat : MPEG-4 Visual\r\nFormat profile : Simple@L1\r\nFormat settings, BVOP : No\r\nFormat settings, QPel : No\r\nFormat settings, GMC : No warppoints\r\nFormat settings, Matrix : Default (H.263)\r\nCodec ID : 20\r\nDuration : 19mn 26s\r\nBit rate mode : Variable\r\nBit rate : 3 705 Kbps\r\nMaximum bit rate : 5 000 Kbps\r\nWidth : 1 280 pixels\r\nHeight : 720 pixels\r\nDisplay aspect ratio : 16:9\r\nFrame rate mode : Constant\r\nFrame rate : 23.976 fps\r\nColor space : YUV\r\nChroma subsampling : 4:2:0\r\nBit depth : 8 bits\r\nScan type : Progressive\r\nCompression mode : Lossy\r\nBits/(Pixel*Frame) : 0.168\r\nStream size : 515 MiB (97%)\r\nWriting library : Lavc55.52.102\r\nLanguage : English\r\n\r\nAudio\r\nID : 2\r\nFormat : AAC\r\nFormat/Info : Advanced Audio Codec\r\nFormat profile : LC\r\nCodec ID : 40\r\nDuration : 19mn 26s\r\nBit rate mode : Variable\r\nBit rate : 127 Kbps\r\nMaximum bit rate : 128 Kbps\r\nChannel(s) : 2 channels\r\nChannel positions : Front: L R\r\nSampling rate : 48.0 KHz\r\nCompression mode : Lossy\r\nStream size : 17.6 MiB (3%)\r\nLanguage : English\r\n\r\n