Teen Porn XXX Tube 1280

High Definition Movies on HD 1283Hot Teen Sex 1274

Posted in Amateur, HD Porn, Sex Movies, Teen | 16397 Views |


Rate this girl !!!




\r\n\r\nhttp://img101.imagetwist.com/i/05181/b5u13bqbdh6n.jpeg\r\n\r\n Link(470 Mb||20:48||960*540||WMV)



DOWNLOAD

Keep2share.cc - Uploaded.net - Openload.co - Rapidu.net


http://keep2share.cc/file/52efbe40e61bf
http://ryushare.com/ocasffnd2r3l/GRSCRMcr.rar
http://ul.to/pjifw9hn


Premium here:
uploaded.net
keep2share.cc
rapidu.net.cc


Teens related to Teen Porn XXX Tube 1280


Janna – Real Homemade Sex Tape ryushare uploaded keep2share

Janna – Real Homemade Sex Tape

Teen Sex Movies 224484 ryushare uploaded keep2share

Teen Sex Movies 224484

Young legal porn clips 4754 ryushare uploaded keep2share

Young legal porn clips 4754

Teen Sex Videos Tube Movies 225334 ryushare uploaded keep2share

Teen Sex Videos Tube Movies 225334

Anabelle Pync – Anabelle’s sensual tease – 2014 ryushare uploaded keep2share

Anabelle Pync – Anabelle’s sensual tease – 2014

Teen Sex Videos Tube Movies 225847 ryushare uploaded keep2share

Teen Sex Videos Tube Movies 225847

High Definition Movies on HD 225518 ryushare uploaded keep2share

High Definition Movies on HD 225518

Wow porn hd downloads 224435 ryushare uploaded keep2share

Wow porn hd downloads 224435

Jessica Rayne – Jerk Off Instruction – Blowjob ryushare uploaded keep2share

Jessica Rayne – Jerk Off Instruction – Blowjob

Much Need Vacation X-Art ryushare uploaded keep2share

Much Need Vacation X-Art

Zarina AKA: Dalida ryushare uploaded keep2share

Zarina AKA: Dalida

Daisy, Karin ryushare uploaded keep2share

Daisy, Karin

pone sexy downloadfor free 226713 ryushare uploaded keep2share

pone sexy downloadfor free 226713

Wow Girls Porn Clips download 225928 ryushare uploaded keep2share

Wow Girls Porn Clips download 225928

Nancey – Aggressive Neighbours ryushare uploaded keep2share

Nancey – Aggressive Neighbours

telecharger free young sex mp4 hd ryushare uploaded keep2share

telecharger free young sex mp4 hd

Teens sex mania 223990 ryushare uploaded keep2share

Teens sex mania 223990

Handjob from cute amateur wife in hot amateur porn 3 ryushare uploaded keep2share

Handjob from cute amateur wife in hot amateur porn 3

Young Sex Movies 3968 ryushare uploaded keep2share

Young Sex Movies 3968

Tube Young Sex 225873 ryushare uploaded keep2share

Tube Young Sex 225873

Girls do porn in HD 225969 ryushare uploaded keep2share

Girls do porn in HD 225969

TrickyMasseur.com Joanna ryushare uploaded keep2share

TrickyMasseur.com Joanna

low mb hd sex video downlod 226309 ryushare uploaded keep2share

low mb hd sex video downlod 226309

TrickyMasseur.com Aline ryushare uploaded keep2share

TrickyMasseur.com Aline

HD Porn Teen Sex Videos 225071 ryushare uploaded keep2share

HD Porn Teen Sex Videos 225071

Fresh Teen Videos 225259 ryushare uploaded keep2share

Fresh Teen Videos 225259

Alexis Brill A Dose Of Pantyhose ryushare uploaded keep2share

Alexis Brill A Dose Of Pantyhose

Free High Quality Sex Movies 225117 ryushare uploaded keep2share

Free High Quality Sex Movies 225117

Young Virgin Pussy Teen Fuck Tube 2962 ryushare uploaded keep2share

Young Virgin Pussy Teen Fuck Tube 2962

xxcsex video ryushare uploaded keep2share

xxcsex video

full 1280p xxx video 226633 ryushare uploaded keep2share

full 1280p xxx video 226633

yang garls boy xxx ryushare uploaded keep2share

yang garls boy xxx

HD Sex World Videos High Definition Free Porn 3501 ryushare uploaded keep2share

HD Sex World Videos High Definition Free Porn 3501

The best Teen sex 2350 ryushare uploaded keep2share

The best Teen sex 2350

www hdsexy xxx 226508 ryushare uploaded keep2share

www hdsexy xxx 226508

Report broken links / Post a comment

You must be logged in to post a comment.



General\r\nComplete name : D:HD TeenMania Porn Sex videos.xxxGRSCRMcrGRSCRMcr.wmv\r\nFormat : Windows Media\r\nFile size : 470 MiB\r\nDuration : 20mn 48s\r\nOverall bit rate mode : Constant\r\nOverall bit rate : 3 159 Kbps\r\nMaximum Overall bit rate : 3 172 Kbps\r\nEncoded date : UTC 2008-08-22 05:14:38.812\r\nSfOriginalFPS : 250000\r\n\r\nVideo\r\nID : 2\r\nFormat : VC-1\r\nFormat profile : MP@HL\r\nCodec ID : WMV3\r\nCodec ID/Info : Windows Media Video 9\r\nCodec ID/Hint : WMV3\r\nDescription of the codec : Windows Media Video 9 - Professional\r\nDuration : 20mn 48s\r\nBit rate mode : Constant\r\nBit rate : 3 130 Kbps\r\nWidth : 960 pixels\r\nHeight : 540 pixels\r\nDisplay aspect ratio : 16:9\r\nFrame rate : 25.000 fps\r\nColor space : YUV\r\nChroma subsampling : 4:2:0\r\nBit depth : 8 bits\r\nScan type : Progressive\r\nCompression mode : Lossy\r\nBits/(Pixel*Frame) : 0.241\r\nStream size : 466 MiB (99%)\r\nLanguage : Russian\r\n\r\nAudio\r\nID : 1\r\nFormat : WMA\r\nFormat version : Version 2\r\nCodec ID : 161\r\nCodec ID/Info : Windows Media Audio\r\nDescription of the codec : Windows Media Audio 9.2 - 16 kbps, 22 kHz, mono (A/V) 1-pass CBR\r\nDuration : 20mn 48s\r\nBit rate mode : Constant\r\nBit rate : 16.0 Kbps\r\nChannel(s) : 1 channel\r\nSampling rate : 22.05 KHz\r\nBit depth : 16 bits\r\nStream size : 2.39 MiB (1%)\r\nLanguage : Russian\r\n\r\n