Teen Sex Movies 1141

Teen Porn XXX Tube 1144HQ Sex Movies Download 1132

Posted in HD Porn, Sex Movies, Teen | 9571 Views |


Rate this girl !!!


(20 raters, 75 scores, average: 3.75 out of 5, 75%)

\r\n\r\nhttp://img56.imagetwist.com/i/05162/af94joevu24a.jpeg\r\n\r\nLink(1.11 Gb||58:59||1280*720||MP4)



DOWNLOAD

Keep2share.cc - Uploaded.net - Openload.co - Rapidu.net


http://ul.to/fz7mi79r
http://ryushare.com/mgnqoainl7u3/CRBNGRsk.rar
http://keep2share.cc/file/52ef9b0368e5f


Premium here:
uploaded.net
keep2share.cc
rapidu.net.cc

Incoming search terms:

  • fullhdpornpic
  • fullhdpornpics
  • full hdpornpics com
  • www fullhdpornpics
  • full hd pornpic com
  • hdpornics
  • hdpornics com
  • Hdpornpices com
  • www fullhdpornpics com/lesbian


Teens related to Teen Sex Movies 1141


X-Art – Addison – No Turning Back ryushare uploaded keep2share

X-Art – Addison – No Turning Back

Ariana Marie – Babysitter ryushare uploaded keep2share

Ariana Marie – Babysitter

xxx hd move Hq 226564 ryushare uploaded keep2share

xxx hd move Hq 226564

Young teens tube hot girls free porn video 2828 ryushare uploaded keep2share

Young teens tube hot girls free porn video 2828

hd yes xxxporn ryushare uploaded keep2share

hd yes xxxporn

Teen xxx sex hd 223813 ryushare uploaded keep2share

Teen xxx sex hd 223813

Young legal porn clips 3535 ryushare uploaded keep2share

Young legal porn clips 3535

18 years girl xxx sex videos) 4656 ryushare uploaded keep2share

18 years girl xxx sex videos) 4656

Passion-HD Lily Ariana 1080 ryushare uploaded keep2share

Passion-HD Lily Ariana 1080

Kiera Winters – Satisfy Her ryushare uploaded keep2share

Kiera Winters – Satisfy Her

Wow Girls Porn Clips download 224386 ryushare uploaded keep2share

Wow Girls Porn Clips download 224386

The best Teen sex 3727 ryushare uploaded keep2share

The best Teen sex 3727

Join The Fun – WowGirls ryushare uploaded keep2share

Join The Fun – WowGirls

21Naturals.com Alysa Gap ryushare uploaded keep2share

21Naturals.com Alysa Gap

Teen porn movies 1779 ryushare uploaded keep2share

Teen porn movies 1779

Hd young videos 1610 ryushare uploaded keep2share

Hd young videos 1610

Hot Teen Sex 225798 ryushare uploaded keep2share

Hot Teen Sex 225798

Young legal porn clips 3026 ryushare uploaded keep2share

Young legal porn clips 3026

Model porno sex 4859 ryushare uploaded keep2share

Model porno sex 4859

Jessie Volt (K POV) A ryushare uploaded keep2share

Jessie Volt (K POV) A

Kiki Vidis ryushare uploaded keep2share

Kiki Vidis

Tube Young Sex 1390 ryushare uploaded keep2share

Tube Young Sex 1390

teen first time sex hd clip download 226311 ryushare uploaded keep2share

teen first time sex hd clip download 226311

Porn party teen girls 224803 ryushare uploaded keep2share

Porn party teen girls 224803

teen porno sites xxx ryushare uploaded keep2share

teen porno sites xxx

Hot Teen Sex HD videos 2354 ryushare uploaded keep2share

Hot Teen Sex HD videos 2354

Big Tits Teen HD ryushare uploaded keep2share

Big Tits Teen HD

Teenies Videos – Teen Porn, Teen Sex, XXX Free Videos 1642 ryushare uploaded keep2share

Teenies Videos – Teen Porn, Teen Sex, XXX Free Videos 1642

Lola Taylor & Franck Franco – Saturday Night ryushare uploaded keep2share

Lola Taylor & Franck Franco – Saturday Night

Wow Xxxsexvideos Com 226707 ryushare uploaded keep2share

Wow Xxxsexvideos Com 226707

College Teen Sex 1987 ryushare uploaded keep2share

College Teen Sex 1987

www xxxnx hd porn video ryushare uploaded keep2share

www xxxnx hd porn video

Wow Girls Porn Clips download 223967 ryushare uploaded keep2share

Wow Girls Porn Clips download 223967

HQ Sex Movies Download 224196 ryushare uploaded keep2share

HQ Sex Movies Download 224196

BLU FIMS BFXX GILRS COM 226254 ryushare uploaded keep2share

BLU FIMS BFXX GILRS COM 226254

Report broken links / Post a comment

You must be logged in to post a comment.



General\r\nComplete name : D:HD TeenMania Porn Sex videosxxxCRBNGRskCRBNGRsk.mp4\r\nFormat : MPEG-4\r\nFormat profile : Base Media\r\nCodec ID : isom\r\nFile size : 1.11 GiB\r\nDuration : 58mn 59s\r\nOverall bit rate mode : Variable\r\nOverall bit rate : 2 683 Kbps\r\nEncoded date : UTC 2014-01-03 02:19:44\r\nTagged date : UTC 2014-01-03 02:19:44\r\nWriting application : Lavf54.6.100\r\n\r\nVideo\r\nID : 1\r\nFormat : AVC\r\nFormat/Info : Advanced Video Codec\r\nFormat profile : High@L4.2\r\nFormat settings, CABAC : Yes\r\nFormat settings, ReFrames : 4 frames\r\nCodec ID : avc1\r\nCodec ID/Info : Advanced Video Coding\r\nDuration : 58mn 59s\r\nBit rate : 2 500 Kbps\r\nWidth : 1 280 pixels\r\nHeight : 720 pixels\r\nDisplay aspect ratio : 16:9\r\nFrame rate mode : Constant\r\nFrame rate : 59.940 fps\r\nColor space : YUV\r\nChroma subsampling : 4:2:0\r\nBit depth : 8 bits\r\nScan type : Progressive\r\nBits/(Pixel*Frame) : 0.045\r\nStream size : 1.03 GiB (93%)\r\nWriting library : x264 core 129\r\nEncoding settings : cabac=1 / ref=3 / deblock=1:0:0 / analyse=0x3:0x113 / me=hex / subme=7 / psy=1 / psy_rd=1.00:0.00 / mixed_ref=1 / me_range=16 / chroma_me=1 / trellis=1 / 8x8dct=1 / cqm=0 / deadzone=21,11 / fast_pskip=1 / chroma_qp_offset=-2 / threads=18 / lookahead_threads=3 / sliced_threads=0 / nr=0 / decimate=1 / interlaced=0 / bluray_compat=0 / constrained_intra=0 / bframes=3 / b_pyramid=2 / b_adapt=1 / b_bias=0 / direct=1 / weightb=1 / open_gop=0 / weightp=2 / keyint=250 / keyint_min=25 / scenecut=40 / intra_refresh=0 / rc_lookahead=40 / rc=2pass / mbtree=1 / bitrate=2500 / ratetol=1.0 / qcomp=0.60 / qpmin=0 / qpmax=69 / qpstep=4 / cplxblur=20.0 / qblur=0.5 / ip_ratio=1.40 / aq=1:1.00\r\nEncoded date : UTC 2014-01-03 02:19:44\r\nTagged date : UTC 2014-01-03 02:19:44\r\n\r\nAudio\r\nID : 2\r\nFormat : AAC\r\nFormat/Info : Advanced Audio Codec\r\nFormat profile : LC\r\nCodec ID : 40\r\nDuration : 58mn 59s\r\nBit rate mode : Variable\r\nBit rate : 170 Kbps\r\nMaximum bit rate : 192 Kbps\r\nChannel(s) : 2 channels\r\nChannel positions : Front: L R\r\nSampling rate : 48.0 KHz\r\nCompression mode : Lossy\r\nStream size : 71.8 MiB (6%)\r\nEncoded date : UTC 2014-01-03 02:19:44\r\nTagged date : UTC 2014-01-03 02:19:44\r\n\r\n