Teen Sex Movies 1210

The best Teen sex 1220Watch Teen Sex Videos HD 1207

Posted in HD Porn, Sex Movies, Teen | 6455 Views |


Rate this girl !!!




\r\n\r\n\r\nhttp://img56.imagetwist.com/i/05170/qyncs3wyj1hx.jpeg\r\n\r\n Link(809 Mb||31:08||1280*720||MP4)



DOWNLOAD

Keep2share.cc - Uploaded.net - Openload.co - Rapidu.net


http://ul.to/dxwwo9is
http://ryushare.com/xu0v76k0el88/NRSTJSwn.rar
http://keep2share.cc/file/52ef9ec351a6f


Premium here:
uploaded.net
keep2share.cc
rapidu.net.cc


Teens related to Teen Sex Movies 1210


HD sex movies downloads 2947 ryushare uploaded keep2share

HD sex movies downloads 2947

xxx clips 2014 com ryushare uploaded keep2share

xxx clips 2014 com

www foto 8 teenxxx 226674 ryushare uploaded keep2share

www foto 8 teenxxx 226674

Teen Sex Movies 223950 ryushare uploaded keep2share

Teen Sex Movies 223950

Free Teen Porn Videos at Teen Sex Tube XXX 3801 ryushare uploaded keep2share

Free Teen Porn Videos at Teen Sex Tube XXX 3801

Teens 1080p hd porn 2520 ryushare uploaded keep2share

Teens 1080p hd porn 2520

free download sexy xxx mp4 movies com ryushare uploaded keep2share

free download sexy xxx mp4 movies com

free download sovjetmassage com 226506 ryushare uploaded keep2share

free download sovjetmassage com 226506

Teen porn movies 2132 ryushare uploaded keep2share

Teen porn movies 2132

hd full vergin sex video download ryushare uploaded keep2share

hd full vergin sex video download

HQ hd full xxx video free download 226615 ryushare uploaded keep2share

HQ hd full xxx video free download 226615

Wow Girls Porn Clips download 224386 ryushare uploaded keep2share

Wow Girls Porn Clips download 224386

Bella Baby 2013 – Facial Double Blowjob Cumshot ryushare uploaded keep2share

Bella Baby 2013 – Facial Double Blowjob Cumshot

18yearporn hd 226684 ryushare uploaded keep2share

18yearporn hd 226684

Nude Teens fucking hard Redhair amateur 4896 ryushare uploaded keep2share

Nude Teens fucking hard Redhair amateur 4896

Young teens tube hot girls free porn video 224021 ryushare uploaded keep2share

Young teens tube hot girls free porn video 224021

Teen porn movies 1779 ryushare uploaded keep2share

Teen porn movies 1779

1By-Day.com / DDFNetwork.com] Valentina Ricci – Sudsy Snatch – Belgian Beauty Masturbates in the Tub (01.12.2016 г.) [Bath, Bathroom, Brunette, Enhanced Tits, Fingering, High Heels, Lingerie, Piercing, Trimmed Pussy, Solo, Medium Tits, 1080p] ryushare uploaded keep2share

1By-Day.com / DDFNetwork.com] Valentina Ricci – Sudsy Snatch – Belgian Beauty Masturbates in the Tub (01.12.2016 г.) [Bath, Bathroom, Brunette, Enhanced Tits, Fingering, High Heels, Lingerie, Piercing, Trimmed Pussy, Solo, Medium Tits, 1080p]

Girls sex art hd teens videos 225807 ryushare uploaded keep2share

Girls sex art hd teens videos 225807

Just Clara ryushare uploaded keep2share

Just Clara

Teen Porn XXX Tube 224426 ryushare uploaded keep2share

Teen Porn XXX Tube 224426

nude hot 226040 ryushare uploaded keep2share

nude hot 226040

HD Porn Teen Sex Videos 2182 ryushare uploaded keep2share

HD Porn Teen Sex Videos 2182

Free High Quality Sex Movies 2128 ryushare uploaded keep2share

Free High Quality Sex Movies 2128

xxx video sex porno 226546 ryushare uploaded keep2share

xxx video sex porno 226546

HQ Sex Movies Download 1132 ryushare uploaded keep2share

HQ Sex Movies Download 1132

Wow Girls Porn Clips download 224666 ryushare uploaded keep2share

Wow Girls Porn Clips download 224666

sex xxx con 226363 ryushare uploaded keep2share

sex xxx con 226363

xxx full hq poharn vido downlod 226036 ryushare uploaded keep2share

xxx full hq poharn vido downlod 226036

Free High Quality Sex Movies 5278 ryushare uploaded keep2share

Free High Quality Sex Movies 5278

ClubSeventeen.com SiteRip – Part 1 ryushare uploaded keep2share

ClubSeventeen.com SiteRip – Part 1

Free Direct Download hd romantic porn movies ryushare uploaded keep2share

Free Direct Download hd romantic porn movies

[Castingcouch-X.com] Alex Tanner ryushare uploaded keep2share

[Castingcouch-X.com] Alex Tanner

low mb hd sex video downlod 226309 ryushare uploaded keep2share

low mb hd sex video downlod 226309

[NuruMassage.com / FantasyMassage.com] Katrina Jade And Kimmy Granger ryushare uploaded keep2share

[NuruMassage.com / FantasyMassage.com] Katrina Jade And Kimmy Granger

Report broken links / Post a comment

You must be logged in to post a comment.



General\r\nComplete name : D:HD TeenMania Porn Sex videosxxxNRSTJSwnNRSTJSwn.mp4\r\nFormat : MPEG-4\r\nFormat profile : Base Media\r\nCodec ID : isom\r\nFile size : 809 MiB\r\nDuration : 31mn 8s\r\nOverall bit rate : 3 632 Kbps\r\nWriting application : Lavf54.63.104\r\n\r\nVideo\r\nID : 1\r\nFormat : AVC\r\nFormat/Info : Advanced Video Codec\r\nFormat profile : High@L3.1\r\nFormat settings, CABAC : Yes\r\nFormat settings, ReFrames : 4 frames\r\nCodec ID : avc1\r\nCodec ID/Info : Advanced Video Coding\r\nDuration : 31mn 8s\r\nBit rate : 3 500 Kbps\r\nWidth : 1 280 pixels\r\nHeight : 720 pixels\r\nDisplay aspect ratio : 16:9\r\nFrame rate mode : Constant\r\nFrame rate : 25.000 fps\r\nColor space : YUV\r\nChroma subsampling : 4:2:0\r\nBit depth : 8 bits\r\nScan type : Progressive\r\nBits/(Pixel*Frame) : 0.152\r\nStream size : 779 MiB (96%)\r\nWriting library : x264 core 120\r\nEncoding settings : cabac=1 / ref=3 / deblock=1:0:0 / analyse=0x3:0x113 / me=hex / subme=6 / psy=1 / psy_rd=1.00:0.00 / mixed_ref=1 / me_range=16 / chroma_me=1 / trellis=2 / 8x8dct=1 / cqm=0 / deadzone=21,11 / fast_pskip=1 / chroma_qp_offset=-2 / threads=12 / sliced_threads=0 / nr=0 / decimate=1 / interlaced=0 / bluray_compat=0 / constrained_intra=0 / bframes=3 / b_pyramid=2 / b_adapt=2 / b_bias=0 / direct=1 / weightb=1 / open_gop=0 / weightp=2 / keyint=60 / keyint_min=25 / scenecut=40 / intra_refresh=0 / rc_lookahead=40 / rc=abr / mbtree=1 / bitrate=3500 / ratetol=1.0 / qcomp=0.60 / qpmin=0 / qpmax=69 / qpstep=4 / ip_ratio=1.41 / aq=1:1.00\r\nLanguage : English\r\n\r\nAudio\r\nID : 2\r\nFormat : AAC\r\nFormat/Info : Advanced Audio Codec\r\nFormat profile : LC\r\nCodec ID : 40\r\nDuration : 31mn 8s\r\nDuration_LastFrame : -1ms\r\nBit rate mode : Constant\r\nBit rate : 128 Kbps\r\nChannel(s) : 2 channels\r\nChannel positions : Front: L R\r\nSampling rate : 44.1 KHz\r\nCompression mode : Lossy\r\nStream size : 28.5 MiB (4%)\r\nLanguage : English\r\n\r\n