Teen Sex Movies 1521

Good Teen Tube Sexy Young Naked Girls Movies 1543Teen Sex Porn Videos Free Nude Teens 1518

Posted in Amateur, HD Porn, Sex Movies, Teen | 11740 Views |


Rate this girl !!!


(18 raters, 67 scores, average: 3.72 out of 5, 74.44%)




http://img102.imagetwist.com/i/05232/sm43i9pl0ulr.jpeg

Link(478 Mb||43:59||960*540||MP4)



DOWNLOAD

Keep2share.cc - Uploaded.net - Openload.co - Rapidu.net



Premium here:
uploaded.net
keep2share.cc
rapidu.net.cc

Incoming search terms:

  • teensexmovis
  • teensexmovis com
  • Www teensexmovis com
  • download teensexmovis
  • teensexmovis free
  • TRENSEXMOVIS COM


Teens related to Teen Sex Movies 1521


Teenies Videos – Teen Porn, Teen Sex, XXX Free Videos 4444 ryushare uploaded keep2share

Teenies Videos – Teen Porn, Teen Sex, XXX Free Videos 4444

Xxxx 2014massage 226629 ryushare uploaded keep2share

Xxxx 2014massage 226629

The best Teen sex 6196 ryushare uploaded keep2share

The best Teen sex 6196

HQ Sex Movies Download 2815 ryushare uploaded keep2share

HQ Sex Movies Download 2815

Teens sex mania 223990 ryushare uploaded keep2share

Teens sex mania 223990

pc full hd video xxx download ryushare uploaded keep2share

pc full hd video xxx download

beata russian tean porn 226488 ryushare uploaded keep2share

beata russian tean porn 226488

Tube Young Sex 3436 ryushare uploaded keep2share

Tube Young Sex 3436

Porno movies young teens lesbian 5412 ryushare uploaded keep2share

Porno movies young teens lesbian 5412

Teen Sex Videos Tube Movies 225092 ryushare uploaded keep2share

Teen Sex Videos Tube Movies 225092

Hot Teen Sex HD videos 225101 ryushare uploaded keep2share

Hot Teen Sex HD videos 225101

8 Teen XXX – Teen Sex 4481 ryushare uploaded keep2share

8 Teen XXX – Teen Sex 4481

Hot Teen Sex HD videos 2905 ryushare uploaded keep2share

Hot Teen Sex HD videos 2905

XXX young porn sex 3489 ryushare uploaded keep2share

XXX young porn sex 3489

hd com 18 year sex mobi 226401 ryushare uploaded keep2share

hd com 18 year sex mobi 226401

Teen Sex Videos Tube Movies 225390 ryushare uploaded keep2share

Teen Sex Videos Tube Movies 225390

Аvа Spаrххх & Veronica Radke – Working The Earth ryushare uploaded keep2share

Аvа Spаrххх & Veronica Radke – Working The Earth

High Definition Movies on HD Teen Porn XXX Tube 4650 ryushare uploaded keep2share

High Definition Movies on HD Teen Porn XXX Tube 4650

Teen xxx sex hd 225800 ryushare uploaded keep2share

Teen xxx sex hd 225800

Mia Manarote – Long-awaited ryushare uploaded keep2share

Mia Manarote – Long-awaited

xvideos porn hd videos 226278 ryushare uploaded keep2share

xvideos porn hd videos 226278

TrickyMasseur.com Anjelica ryushare uploaded keep2share

TrickyMasseur.com Anjelica

Young teens tube hot girls free porn video 5527 ryushare uploaded keep2share

Young teens tube hot girls free porn video 5527

www xxx Bif videos HD ryushare uploaded keep2share

www xxx Bif videos HD

Hot Teen Sex HD videos 2354 ryushare uploaded keep2share

Hot Teen Sex HD videos 2354

Lucy Li & William Zeff – With Love ryushare uploaded keep2share

Lucy Li & William Zeff – With Love

HD Sex World Videos High Definition Free Porn 5342 ryushare uploaded keep2share

HD Sex World Videos High Definition Free Porn 5342

High Definition Movies on HD Teen Porn XXX Tube 1249 ryushare uploaded keep2share

High Definition Movies on HD Teen Porn XXX Tube 1249

Free High Quality Sex Movies 1698 ryushare uploaded keep2share

Free High Quality Sex Movies 1698

Girls sex art hd teens videos 224551 ryushare uploaded keep2share

Girls sex art hd teens videos 224551

xxx purn HD dawnlod ryushare uploaded keep2share

xxx purn HD dawnlod

18YearOld.com Alexis Adams – Blonde Teen ryushare uploaded keep2share

18YearOld.com Alexis Adams – Blonde Teen

Maaike – A nice handjob to finish it ryushare uploaded keep2share

Maaike – A nice handjob to finish it

Janice Griffith – Fucking Her Right ryushare uploaded keep2share

Janice Griffith – Fucking Her Right

Teen Sex Videos Tube Movies 224992 ryushare uploaded keep2share

Teen Sex Videos Tube Movies 224992

Report broken links / Post a comment

You must be logged in to post a comment.



General
Complete name : D:HD Teens Download Porn Sex clips movies Tube.xxxWNCPCBlmWNCPCBlm.mp4
Format : MPEG-4
Format profile : Base Media
Codec ID : isom
File size : 478 MiB
Duration : 43mn 59s
Overall bit rate mode : Variable
Overall bit rate : 1 518 Kbps
Movie name : LEYLA PEACHBLOOM - WUNF 116
Album/Performer : Pierre Woodman
Description : Cette vidéo traite de LEYLA PEACHBLOOM - WUNF 116
Writing application : Lavf54.63.104

Video
ID : 1
Format : AVC
Format/Info : Advanced Video Codec
Format profile : High@L3.1
Format settings, CABAC : Yes
Format settings, ReFrames : 4 frames
Codec ID : avc1
Codec ID/Info : Advanced Video Coding
Duration : 43mn 58s
Bit rate mode : Variable
Bit rate : 1 400 Kbps
Maximum bit rate : 2 000 Kbps
Width : 960 pixels
Height : 540 pixels
Display aspect ratio : 16:9
Frame rate mode : Constant
Frame rate : 25.000 fps
Color space : YUV
Chroma subsampling : 4:2:0
Bit depth : 8 bits
Scan type : Progressive
Bits/(Pixel*Frame) : 0.108
Stream size : 441 MiB (92%)
Writing library : x264 core 132
Encoding settings : cabac=1 / ref=5 / deblock=1:0:0 / analyse=0x3:0x113 / me=umh / subme=8 / psy=1 / psy_rd=1.00:0.00 / mixed_ref=1 / me_range=16 / chroma_me=1 / trellis=1 / 8x8dct=1 / cqm=0 / deadzone=21,11 / fast_pskip=1 / chroma_qp_offset=0 / threads=8 / lookahead_threads=1 / sliced_threads=0 / nr=0 / decimate=1 / interlaced=0 / bluray_compat=1 / constrained_intra=0 / bframes=3 / b_pyramid=1 / b_adapt=2 / b_bias=0 / direct=3 / weightb=1 / open_gop=0 / weightp=1 / keyint=50 / keyint_min=1 / scenecut=40 / intra_refresh=0 / rc_lookahead=50 / rc=2pass / mbtree=1 / bitrate=1400 / ratetol=1.0 / qcomp=0.60 / qpmin=0 / qpmax=69 / qpstep=4 / cplxblur=20.0 / qblur=0.5 / vbv_maxrate=2000 / vbv_bufsize=4000 / nal_hrd=vbr / ip_ratio=1.40 / aq=1:1.00
Language : English

Audio
ID : 2
Format : AAC
Format/Info : Advanced Audio Codec
Format profile : LC
Codec ID : 40
Duration : 43mn 59s
Bit rate mode : Constant
Bit rate : 112 Kbps
Channel(s) : 2 channels
Channel positions : Front: L R
Sampling rate : 48.0 KHz
Compression mode : Lossy
Stream size : 35.2 MiB (7%)
Language : English