Teen Sex Movies Young Porn Tube Vids 1253

Hardcore sex videos in the high definition quality 1260High Definition Movies on HD Teen Porn XXX Tube 1249

Posted in Amateur, HD Porn, Sex Movies, Teen | 17282 Views |


Rate this girl !!!




\r\n\r\n\r\n\r\n\r\nhttp://img101.imagetwist.com/i/05174/4u38jjomjtpy.jpg\r\n\r\n Link(372 Mb||24:37||720*576||WMV)



DOWNLOAD

Keep2share.cc - Uploaded.net - Openload.co - Rapidu.net


http://keep2share.cc/file/52efbc6e9167b
http://ryushare.com/w7nm4d5y88tz/CNSGRSly.rar
http://ul.to/3l9hum6t


Premium here:
uploaded.net
keep2share.cc
rapidu.net.cc


Teens related to Teen Sex Movies Young Porn Tube Vids 1253


Porno lesbian young teens movies 4570 ryushare uploaded keep2share

Porno lesbian young teens movies 4570

Teen porn xxx 5487 ryushare uploaded keep2share

Teen porn xxx 5487

Hot Teen Sex 2164 ryushare uploaded keep2share

Hot Teen Sex 2164

Hot Teen Sex HD videos 224322 ryushare uploaded keep2share

Hot Teen Sex HD videos 224322

Wet Tshirt contest Turns To Orgy ryushare uploaded keep2share

Wet Tshirt contest Turns To Orgy

Free High Quality Sex Movies 5278 ryushare uploaded keep2share

Free High Quality Sex Movies 5278

Hd young videos 3854 ryushare uploaded keep2share

Hd young videos 3854

Small girls and boys porn 4062 ryushare uploaded keep2share

Small girls and boys porn 4062

Public Pick Ups – Lili Devil ryushare uploaded keep2share

Public Pick Ups – Lili Devil

TeenLustHD com ryushare uploaded keep2share

TeenLustHD com

Amarna Miller & Juan Lucho – Que Es La Pasion ryushare uploaded keep2share

Amarna Miller & Juan Lucho – Que Es La Pasion

Hardcore Sex Hub 224876 ryushare uploaded keep2share

Hardcore Sex Hub 224876

yess xxx mkv 226512 ryushare uploaded keep2share

yess xxx mkv 226512

Teen porn movies 224116 ryushare uploaded keep2share

Teen porn movies 224116

Free High Quality Sex Movies 225699 ryushare uploaded keep2share

Free High Quality Sex Movies 225699

8 Teen XXX – Teen Sex 1309 ryushare uploaded keep2share

8 Teen XXX – Teen Sex 1309

Sweet Teen Porn – Young Porn Videos 224592 ryushare uploaded keep2share

Sweet Teen Porn – Young Porn Videos 224592

The best Teen sex 223940 ryushare uploaded keep2share

The best Teen sex 223940

Young Sex Movies 5605 ryushare uploaded keep2share

Young Sex Movies 5605

www21SEXE TURY com ryushare uploaded keep2share

www21SEXE TURY com

Brandi Melanie Melody – Real Amateur Girls ryushare uploaded keep2share

Brandi Melanie Melody – Real Amateur Girls

www hd teen movie download com 226210 ryushare uploaded keep2share

www hd teen movie download com 226210

Fucking a RedHair Sexy teen amateur ryushare uploaded keep2share

Fucking a RedHair Sexy teen amateur

download porn in mkv format free 226124 ryushare uploaded keep2share

download porn in mkv format free 226124

Wow porn tube movies 224325 ryushare uploaded keep2share

Wow porn tube movies 224325

First time Sexual Films 18 sex xxx 224947 ryushare uploaded keep2share

First time Sexual Films 18 sex xxx 224947

Teen Sex Porn Videos Free Nude Teens 224616 ryushare uploaded keep2share

Teen Sex Porn Videos Free Nude Teens 224616

Anabelle Pync – Anabelle’s sensual tease – 2014 ryushare uploaded keep2share

Anabelle Pync – Anabelle’s sensual tease – 2014

Free Teen Porn Videos at Teen Sex Tube XXX 224787 ryushare uploaded keep2share

Free Teen Porn Videos at Teen Sex Tube XXX 224787

porn movies ass fucking mkv download 226144 ryushare uploaded keep2share

porn movies ass fucking mkv download 226144

Two Boys & One Girl – X-Art ryushare uploaded keep2share

Two Boys & One Girl – X-Art

[PublicAgent.com] Stella Cox – Big Natural Boobs Fucked in Public ryushare uploaded keep2share

[PublicAgent.com] Stella Cox – Big Natural Boobs Fucked in Public

yunga grls porn sex com ryushare uploaded keep2share

yunga grls porn sex com

Two Teasing Tongues 10 – B ryushare uploaded keep2share

Two Teasing Tongues 10 – B

Asian Amateur Video ryushare uploaded keep2share

Asian Amateur Video

Report broken links / Post a comment

You must be logged in to post a comment.



General\r\nComplete name : D:HD TeenMania Porn Sex videos.xxxCNSGRSlyCNSGRSly.wmv\r\nFormat : Windows Media\r\nFile size : 648 MiB\r\nDuration : 17mn 27s\r\nOverall bit rate : 5 194 Kbps\r\nMaximum Overall bit rate : 5 151 Kbps\r\nEncoded date : UTC 2013-06-25 03:05:32.000\r\n\r\nVideo\r\nID : 1\r\nFormat : VC-1\r\nFormat profile : Main\r\nCodec ID : WMV3\r\nCodec ID/Info : Windows Media Video 9\r\nCodec ID/Hint : WMV3\r\nDescription of the codec : Windows Media Video 309391160 - 2-pass VBR\r\nDuration : 17mn 27s\r\nBit rate : 5 000 Kbps\r\nWidth : 1 280 pixels\r\nHeight : 720 pixels\r\nDisplay aspect ratio : 16:9\r\nFrame rate : 25.000 fps\r\nColor space : YUV\r\nChroma subsampling : 4:2:0\r\nBit depth : 8 bits\r\nScan type : Progressive\r\nCompression mode : Lossy\r\nBits/(Pixel*Frame) : 0.217\r\nStream size : 624 MiB (96%)\r\n\r\nAudio\r\nID : 2\r\nFormat : WMA\r\nFormat version : Version 2\r\nCodec ID : 161\r\nCodec ID/Info : Windows Media Audio\r\nDescription of the codec : Windows Media Audio 9 - 309391160 kbps, 309391160 kHz, stereo CBR\r\nDuration : 17mn 27s\r\nBit rate : 128 Kbps\r\nChannel(s) : 2 channels\r\nSampling rate : 44.1 KHz\r\nBit depth : 16 bits\r\nStream size : 16.0 MiB (2%)\r\n\r\n