Teen Sex Movies Young Porn Tube Vids 2930

Teenage Fuck Clips 2933HD Porn Videos 2925

Posted in HD Porn, Pornstar, Sex Movies, Teen | 6675 Views |


Rate this girl !!!




\r\n2.jpg\r\n\r\nLink(1.14 Gb||32:37||1280*720||MOV)



DOWNLOAD

Keep2share.cc - Uploaded.net - Openload.co - Rapidu.net


http://k2s.cc/file/b2e854696a6f6/SCNGSVls.mov
http://ryushare.com/w8dlxcnav74w/SCNGSVls.mov
http://ul.to/xd7sf4g2/SCNGSVls.mov


Premium here:
uploaded.net
keep2share.cc
rapidu.net.cc


Teens related to Teen Sex Movies Young Porn Tube Vids 2930


xxx hq sexy vedioes 226528 ryushare uploaded keep2share

xxx hq sexy vedioes 226528

Teen porn xxx 224836 ryushare uploaded keep2share

Teen porn xxx 224836

Nude Teens fucking hard 1825 ryushare uploaded keep2share

Nude Teens fucking hard 1825

kHz xxx sex ryushare uploaded keep2share

kHz xxx sex

HD Porn Video 2499 ryushare uploaded keep2share

HD Porn Video 2499

Teenies Videos – Teen Porn, Teen Sex, XXX Free Videos 2114 ryushare uploaded keep2share

Teenies Videos – Teen Porn, Teen Sex, XXX Free Videos 2114

Porn teen hd downloads 224873 ryushare uploaded keep2share

Porn teen hd downloads 224873

Hot Teen Sex HD videos 225101 ryushare uploaded keep2share

Hot Teen Sex HD videos 225101

Teen porn xxx 223828 ryushare uploaded keep2share

Teen porn xxx 223828

Sex Teens porn movies 4742 ryushare uploaded keep2share

Sex Teens porn movies 4742

Young Sex Movies 225506 ryushare uploaded keep2share

Young Sex Movies 225506

Natali – PublicAgent ryushare uploaded keep2share

Natali – PublicAgent

www hdxxx porn tube 226248 ryushare uploaded keep2share

www hdxxx porn tube 226248

free hd video x art 226034 ryushare uploaded keep2share

free hd video x art 226034

www hd all xxxmovies com ryushare uploaded keep2share

www hd all xxxmovies com

girlboy xxxwalpaper 226160 ryushare uploaded keep2share

girlboy xxxwalpaper 226160

www HD fuck vido 226084 ryushare uploaded keep2share

www HD fuck vido 226084

www sex video hdfast time 226460 ryushare uploaded keep2share

www sex video hdfast time 226460

Clubseventeen 507 Mb 226566 ryushare uploaded keep2share

Clubseventeen 507 Mb 226566

Wow Girls Porn Clips download 5142 ryushare uploaded keep2share

Wow Girls Porn Clips download 5142

Spanish Party Hot Teens HD ryushare uploaded keep2share

Spanish Party Hot Teens HD

Watch Teen Sex Videos HD 4135 ryushare uploaded keep2share

Watch Teen Sex Videos HD 4135

College Teen Sex 6536 ryushare uploaded keep2share

College Teen Sex 6536

Linda S – YES Girl ryushare uploaded keep2share

Linda S – YES Girl

best teen sex mobi 226301 ryushare uploaded keep2share

best teen sex mobi 226301

Chelsea – First & Forever ryushare uploaded keep2share

Chelsea – First & Forever

Teen porn movies 225157 ryushare uploaded keep2share

Teen porn movies 225157

Free Porn Videos Xxx Movies Pussy Porn 225741 ryushare uploaded keep2share

Free Porn Videos Xxx Movies Pussy Porn 225741

Teena Dolly ryushare uploaded keep2share

Teena Dolly

[WowPorn.com] Feona – Humans Needs. R E D ryushare uploaded keep2share

[WowPorn.com] Feona – Humans Needs. R E D

seks party model porno 226206 ryushare uploaded keep2share

seks party model porno 226206

Sweet Teen Porn – Young Porn Videos 224138 ryushare uploaded keep2share

Sweet Teen Porn – Young Porn Videos 224138

mania teennporn 226597 ryushare uploaded keep2share

mania teennporn 226597

Teen porn movies 3950 ryushare uploaded keep2share

Teen porn movies 3950

Teen sex xxx hd 4489 ryushare uploaded keep2share

Teen sex xxx hd 4489

Report broken links / Post a comment

You must be logged in to post a comment.



General\r\nComplete name : D:HD Porn Teens Sex movies tube online downloadSCNGSVls.mov\r\nFormat : MPEG-4\r\nFormat profile : QuickTime\r\nCodec ID : qt \r\nFile size : 1.14 GiB\r\nDuration : 32mn 37s\r\nOverall bit rate : 5 024 Kbps\r\nEncoded date : UTC 2013-07-10 14:14:46\r\nTagged date : UTC 2013-07-10 14:12:37\r\nWriting library : Apple QuickTime\r\n©TIM : 00;00;00;00\r\n©TSC : 30000\r\n©TSZ : 1001\r\n\r\nVideo\r\nID : 1\r\nFormat : AVC\r\nFormat/Info : Advanced Video Codec\r\nFormat profile : Main@L3.1\r\nFormat settings, CABAC : No\r\nFormat settings, ReFrames : 2 frames\r\nFormat settings, GOP : M=2, N=24\r\nCodec ID : avc1\r\nCodec ID/Info : Advanced Video Coding\r\nDuration : 32mn 37s\r\nBit rate : 3 995 Kbps\r\nWidth : 1 280 pixels\r\nHeight : 720 pixels\r\nDisplay aspect ratio : 16:9\r\nFrame rate mode : Constant\r\nFrame rate : 29.970 fps\r\nColor space : YUV\r\nChroma subsampling : 4:2:0\r\nBit depth : 8 bits\r\nScan type : Progressive\r\nBits/(Pixel*Frame) : 0.145\r\nStream size : 932 MiB (80%)\r\nLanguage : English\r\nEncoded date : UTC 2013-07-10 14:14:46\r\nTagged date : UTC 2013-07-10 15:12:36\r\nColor primaries : BT.709\r\nTransfer characteristics : BT.709\r\nMatrix coefficients : BT.709\r\n\r\nAudio\r\nID : 2\r\nFormat : PCM\r\nFormat settings, Endianness : Little\r\nFormat settings, Sign : Signed\r\nCodec ID : sowt\r\nDuration : 32mn 37s\r\nBit rate mode : Constant\r\nBit rate : 1 024 Kbps\r\nChannel(s) : 2 channels\r\nChannel positions : Front: L R\r\nSampling rate : 32.0 KHz\r\nBit depth : 16 bits\r\nStream size : 239 MiB (20%)\r\nLanguage : English\r\nEncoded date : UTC 2013-07-10 14:14:47\r\nTagged date : UTC 2013-07-10 15:12:36\r\n\r\nOther\r\nID : 3\r\nType : Time code\r\nFormat : QuickTime TC\r\nDuration : 32mn 37s\r\nTime code of first frame : 00:00:00;00\r\nTime code settings : Striped\r\nLanguage : English\r\nEncoded date : UTC 2013-07-10 15:12:36\r\nTagged date : UTC 2013-07-10 15:12:36\r\n\r\n